Today is a free download without charge Download

Хакеры / Hackers (1995) [720p] HDTV [EN+5RU]

Reply to topic
 
Author
Message

Varius ®

Gender:

Longevity: 9 years 7 months

Posts: 2416

Location: Hell

Торрент-статистика

Post 26-Mar-2011 23:01

[Quote]

Хакеры / Hackers (1995) HDTVRip- Русское название: Хакеры
Оригинальное название: Hackers
Год выпуска: 1995
Жанр: Триллер, Приключения
Описание фильма:
Группу подростков — хакеров обвиняют в серии компьютерных взломов, краж и хулиганств. Чтобы доказать свою невиновность, им нужно выявить настоящего преступника, афериста экстракласса, и предотвратить, возможно, самое крупное ограбление наших дней ... Молодежный киберпанк-триллер с участием совсем юных американских актеров, чья блестящая игра и сделала этот фильм столь популярным у зрителей
Режиссер: Iain Softley
Актеры: Джонни Ли Миллер, Анджелина Джоли, Джесс Бредфорд, Мэттью Лиллард, Лоуренс Мейсон, Реноли Сантьяго, Фишер Стивенс, Альберта Уотсон, Даррен Ли, Майкл Гастон, Марк Энтони, Фелисити Хаффман
Продолжительность: 1:45:12
Перевод: Дублированный / Многоголосый / Одноголосый
IMDB-рейтинг: 5.8/10 (25,192 votes) Ссылка
Дата мировой премьеры: 15.09.1995
Видеокодек: AVC
Битрейт видео: ~5501 Kbps
Размер кадра: 1280x720
Качество видео: HDTVRip
Аудио:
Аудио 1: Dolby AC3 44100Hz stereo [Russian, Русский дублированный (Audio 1)] 320 Kbps
Аудио 2: Dolby AC3 48000Hz stereo [Russian, Многоголосый войсовер (НТВ+) (Audio 2)] 192 Kbps
Аудио 3: Dolby AC3 48000Hz 6ch [Russian, Многоголосый войсовер (НТВ) (Audio 3)] 384 Kbps
Аудио 4: MPEG Audio Layer 3 44100Hz stereo [Russian, Одноголосый войсовер (Визгунов) (Audio 4)] 192 Kbps
Аудио 5: MPEG Audio Layer 3 48000Hz stereo [Russian, Одноголосый войсовер (Карцев) (Audio 5)] 128 Kbps
Аудио 6: Dolby AC3 48000Hz 6ch [English, Английский (Audio 6)] 448 Kbps

Общая информация по файлу

Complete name : Hackers720.mkv
Format : Matroska
File size : 5.27 GiB
Duration : 1h 45mn
Overall bit rate : 7 168 Kbps
Encoded date : UTC 2009-10-25 10:34:52
Writing application : mkvmerge v2.9.8 ('C'est le bon') built on Aug 13 2009 12:49:06
Writing library : libebml v0.7.7 + libmatroska v0.8.1
Video
ID : 1
Format : AVC
Format/Info : Advanced Video Codec
Format profile : [url=mailto:[email protected]][email protected][/url]
Format settings, CABAC : Yes
Format settings, ReFrames : 13 frames
Muxing mode : Container [email protected]
Codec ID : V_MPEG4/ISO/AVC
Duration : 1h 45mn
Bit rate : 5 362 Kbps
Nominal bit rate : 5 501 Kbps
Width : 1 280 pixels
Height : 720 pixels
Display aspect ratio : 16:9
Frame rate : 23.976 fps
Resolution : 24 bits
Colorimetry : 4:2:0
Scan type : Progressive
Bits/(Pixel*Frame) : 0.243
Stream size : 3.94 GiB (75%)
Writing library : x264 core 47 svn-530M
Encoding settings : cabac=1 / ref=10 / deblock=1:0:0 / analyse=0x3:0x133 / me=hex / subme=6 / brdo=1 / mixed_ref=1 / me_range=16 / chroma_me=1 / trellis=1 / 8x8dct=1 / cqm=0 / chroma_qp_offset=0 / slices=2 / nr=0 / decimate=1 / bframes=3 / b_pyramid=1 / b_adapt=1 / b_bias=0 / direct=2 / wpredb=1 / bime=1 / keyint=250 / keyint_min=25 / scenecut=40 / rc=2pass / bitrate=5501 / ratetol=1.0 / rceq='blurCplx^(1-qComp)' / qcomp=0.60 / qpmin=10 / qpmax=51 / qpstep=4 / cplxblur=20.0 / qblur=0.5 / ip_ratio=1.40 / pb_ratio=1.30
Language : English
Audio #1
ID : 2
Format : AC-3
Format/Info : Audio Coding 3
Codec ID : A_AC3
Duration : 1h 45mn
Bit rate mode : Constant
Bit rate : 320 Kbps
Channel(s) : 2 channels
Channel positions : L R
Sampling rate : 44.1 KHz
Stream size : 241 MiB (4%)
Title : Русский дублированный
Language : Russian
Audio #2
ID : 3
Format : AC-3
Format/Info : Audio Coding 3
Format profile : Dolby Digital
Codec ID : A_AC3
Duration : 1h 45mn
Bit rate mode : Constant
Bit rate : 192 Kbps
Channel(s) : 2 channels
Channel positions : L R
Sampling rate : 48.0 KHz
Stream size : 144 MiB (3%)
Title : Многоголосый войсовер (НТВ+)
Language : Russian
Audio #3
ID : 4
Format : AC-3
Format/Info : Audio Coding 3
Codec ID : A_AC3
Duration : 1h 45mn
Bit rate mode : Constant
Bit rate : 384 Kbps
Channel(s) : 6 channels
Channel positions : Front: L C R, Surround: L R, LFE
Sampling rate : 48.0 KHz
Stream size : 289 MiB (5%)
Title : Многоголосый войсовер (НТВ)
Language : Russian
Audio #4
ID : 5
Format : MPEG Audio
Format version : Version 1
Format profile : Layer 3
Codec ID : A_MPEG/L3
Codec ID/Hint : MP3
Duration : 1h 45mn
Bit rate mode : Constant
Bit rate : 192 Kbps
Channel(s) : 2 channels
Sampling rate : 44.1 KHz
Resolution : 16 bits
Stream size : 144 MiB (3%)
Title : Одноголосый войсовер (Визгунов)
Language : Russian
Audio #5
ID : 6
Format : MPEG Audio
Format version : Version 1
Format profile : Layer 3
Format settings, Mode : Joint stereo / MS Stereo
Codec ID : A_MPEG/L3
Codec ID/Hint : MP3
Duration : 1h 45mn
Bit rate mode : Constant
Bit rate : 128 Kbps
Channel(s) : 2 channels
Sampling rate : 48.0 KHz
Resolution : 16 bits
Stream size : 96.3 MiB (2%)
Title : Одноголосый войсовер (Карцев)
Writing library : LAME3.97
Language : Russian
Audio #6
ID : 7
Format : AC-3
Format/Info : Audio Coding 3
Codec ID : A_AC3
Duration : 1h 45mn
Bit rate mode : Constant
Bit rate : 448 Kbps
Channel(s) : 6 channels
Channel positions : Front: L C R, Surround: L R, LFE
Sampling rate : 48.0 KHz
Stream size : 337 MiB (6%)
Title : Английский
Language : English
Скриншоты:
   Время раздачи: c 9:30 до 2:00

_________________

Создавая "Новую папку", не считайте себя Создателем - это право Вам дано Админом




Last edited by Varius on 2011-03-27 11:51; edited 2 times in total
Other forum [Profile] [PM]
Similar theme
Forum Topic Author Torrent Replies Last Post
./templates/default/images/folder_dl.gif Обучающее видео Специалист | СЕН3 (CHFI) Расследование хакерских инцидентов (2016) PCRec Omen
1 | 0

0 | 1793

43

2016-10-27 01:01
Omen Latest
./templates/default/images/folder_dl.gif Обучающее видео Специалист | СЕН2 (ECSA) Тестирование на проникновение хакера и анализ безопасности. (2016) PCRec Omen
1 | 0

0 | 1830

37

2016-12-03 01:00
Omen Latest
./templates/default/images/folder_dl.gif Игровые и Компьютерные журналы Журнал | Хакер №2 (239) (февраль 2019) [PDF] }{@R0N
1 | 0

0 | 617

0

2019-03-22 23:04
}{@R0N Latest
Display posts from previous:    
Reply to topic

The time now is: Today 11:52

All times are GMT + 3 Hours



You cannot post new topics in this forum
You cannot reply to topics in this forum
You cannot edit your posts in this forum
You cannot delete your posts in this forum
You cannot vote in polls in this forum
You cannot attach files in this forum
You cannot download files in this forum