Today is a free download without charge Download

Идальго: Погоня в пустыне / Hidalgo (Джо Джонстон) [2004 г., боевик, драма, приключения, BDRip 1080p]

Reply to topic
 
Author
Message

Delia ®

Gender:

Longevity: 9 years 6 months

Posts: 1821

Торрент-статистика

Post 26-Mar-2011 16:18

[Quote]

Идальго: Погоня в пустынеHidalgo Год выпуска: 2004
Страна: США
Жанр: боевик, драма, приключения
Продолжительность: 02:16:24
Перевод: Профессиональный (полное дублирование)
Режиссер: Джо Джонстон
Продюссер: Кэйси Сильвер, Патриция Карр, Крис Сальватерра
Сценарий: Джон Фуско
Бюджет: $100 000 000
Премьера в мире: 17 февраля 2004
В ролях: Вигго Мортенсен, Зулейха Робинсон, Омар Шариф, Луиза Ломбард, Адам Алекси-Маль, Саид Тагмауи, Сайлас Карсон, Харш Найяр, Дж.К. Симмонс, Адони Маропис
Описание: В 1890 году богатый шейх впервые пригласил участвовать в соревнованиях иностранца. Им стал американец Фрэнк Хопкинс, лучший ковбой и наездник на всем Диком Западе. Влиятельный шейх поставил сумасшедшие деньги на победу иноземца.Теперь его судьба зависит от противостояния американского выскочки на мустанге по кличке Идальго и лучших арабских жеребцов, управляемых самыми искусными наездниками-бедуинами. И далеко не всех устраивает победа дерзкого янки в традиционном арабском дерби, ведь она может принести одним — славу, а другим — смерть. И для Фрэнка победа становится не только делом чести, но и единственной возможностью выжить в жарких песках бескрайней пустыни...
Качество: BDRip 1080p
Формат: MKV
Видео кодек: H.264
Аудио кодек: AC3
Видео: English, 3818 Кбит/сек, 1920*800 (2,40:1), в 23,976 кадр/сек, AVC
Аудио: Russian, 448 Кбит/сек, 48,0 КГц, 16 бит, 6 канала(ов), AC-3
Аудио:English, 320 Кбит/сек, 48,0 КГц, 16 бит, 6 канала(ов), AC-3
Субтитры:Russian, English- VobSub

Media Info:

Общее
Уникальный идентификатор : 177430207427641683511730968479413321216 (0x857BD0A0B7FF6896B4F585567BEC3E00)
Полное имя : E:\торрент\Hidalgo (2004) BDRip 1080р.mkv
Формат : Matroska
Размер файла : 4,38 Гбайт
Продолжительность : 2 ч. 16 м.
Общий поток : 4592 Кбит/сек
Дата кодирования : UTC 2011-03-26 08:26:01
Программа кодирования : mkvmerge v4.6.0 ('Still Crazy After All These Years') built on Mar 10 2011 02:50:32
Библиотека кодирования : libebml v1.2.0 + libmatroska v1.1.0
Видео
Идентификатор : 1
Формат : AVC
Формат/Информация : Advanced Video Codec
Профиль формата : [email protected]
Параметр CABAC формата : Да
Параметр ReFrames формата : 16 кадры
Идентификатор кодека : V_MPEG4/ISO/AVC
Продолжительность : 2 ч. 16 м.
Битрейт : 3818 Кбит/сек
Ширина : 1920 пикс.
Высота : 800 пикс.
Соотношение сторон : 2,40:1
Частота кадров : 23,976 кадр/сек
Цветовое пространство : YUV
Подвыборка цветности : 4:2:0
Битовая глубина : 8 бит
Тип развёртки : Прогрессивная
Бит/(Пиксели*Кадры) : 0.104
Размер потока : 3,56 Гбайт (81%)
Заголовок : /*spam*/
Библиотека кодирования : x264 core 114 r1913 5fd3dce
Настройки программы : cabac=1 / ref=16 / deblock=1:-3:-3 / analyse=0x3:0x133 / me=umh / subme=7 / psy=1 / psy_rd=1.00:0.15 / mixed_ref=1 / me_range=32 / chroma_me=1 / trellis=2 / 8x8dct=1 / cqm=0 / deadzone=21,11 / fast_pskip=0 / chroma_qp_offset=-3 / threads=6 / sliced_threads=0 / nr=0 / decimate=1 / interlaced=0 / constrained_intra=0 / bframes=5 / b_pyramid=2 / b_adapt=1 / b_bias=0 / direct=1 / weightb=1 / open_gop=0 / weightp=2 / keyint=250 / keyint_min=24 / scenecut=40 / intra_refresh=0 / rc_lookahead=40 / rc=2pass / mbtree=1 / bitrate=3818 / ratetol=1.0 / qcomp=0.80 / qpmin=10 / qpmax=51 / qpstep=4 / cplxblur=20.0 / qblur=0.5 / ip_ratio=1.40 / aq=1:1.00
Язык : English
Аудио #1
Идентификатор : 2
Формат : AC-3
Формат/Информация : Audio Coding 3
Расширение режима : CM (complete main)
Идентификатор кодека : A_AC3
Продолжительность : 2 ч. 16 м.
Вид битрейта : Постоянный
Битрейт : 448 Кбит/сек
Канал(ы) : 6 канала(ов)
Расположение каналов : Front: L C R, Side: L R, LFE
Частота : 48,0 КГц
Битовая глубина : 16 бит
Метод сжатия : С потерями
Размер потока : 437 Мбайт (10%)
Язык : Russian
Аудио #2
Идентификатор : 3
Формат : AC-3
Формат/Информация : Audio Coding 3
Расширение режима : CM (complete main)
Идентификатор кодека : A_AC3
Продолжительность : 2 ч. 16 м.
Вид битрейта : Постоянный
Битрейт : 320 Кбит/сек
Канал(ы) : 6 канала(ов)
Расположение каналов : Front: L C R, Side: L R, LFE
Частота : 48,0 КГц
Битовая глубина : 16 бит
Метод сжатия : С потерями
Размер потока : 312 Мбайт (7%)
Язык : English
Текст #1
Идентификатор : 4
Формат : VobSub
Режим смешивания : zlib
Идентификатор кодека : S_VOBSUB
Идентификатор кодека/Информация : The same subtitle format used on DVDs
Язык : Russian
Текст #2
Идентификатор : 5
Формат : VobSub
Режим смешивания : zlib
Идентификатор кодека : S_VOBSUB
Идентификатор кодека/Информация : The same subtitle format used on DVDs
Язык : English
Меню
00:00:00.000 : en:00:00:00.000
00:04:00.115 : en:00:04:00.115
00:08:08.321 : en:00:08:08.321
00:13:07.787 : en:00:13:07.787
00:23:58.687 : en:00:23:58.687
00:31:04.613 : en:00:31:04.613
00:39:29.993 : en:00:39:29.993
00:50:55.719 : en:00:50:55.719
00:58:42.394 : en:00:58:42.394
01:06:45.960 : en:01:06:45.960
01:12:21.796 : en:01:12:21.796
01:23:50.651 : en:01:23:50.651
01:30:35.805 : en:01:30:35.805
01:41:25.788 : en:01:41:25.788
01:49:23.640 : en:01:49:23.640
01:55:24.209 : en:01:55:24.209
02:01:13.558 : en:02:01:13.558
02:03:51.466 : en:02:03:51.466

Скриншоты

        

_________________
Человек – это канат, натянутый между животным и сверхчеловеком, – канат над пропастью.
В человеке ценно то, что он мост, а не цель. Фридрих Ницше


Last edited by Delia on 2011-08-26 00:28; edited 2 times in total
Other forum [Profile] [PM]
Display posts from previous:    
Reply to topic

The time now is: Today 19:55

All times are GMT + 3 Hours



You cannot post new topics in this forum
You cannot reply to topics in this forum
You cannot edit your posts in this forum
You cannot delete your posts in this forum
You cannot vote in polls in this forum
You cannot attach files in this forum
You cannot download files in this forum