Today is a free download without charge Download

Виталька / Віталька (Сезон 1,2 / 01-66 серии из ~) (Рога и копыта продакшн, телеканал ТЕТ) [2012/2013 г., Комедия, скетч, тв-шоу, SATRip]

Reply to topic
 
Author
Message

Theseus ®

Gender:

Longevity: 10 years

Posts: 2070

Торрент-статистика

Post 21-Nov-2012 18:27

[Quote]

-Виталька / Віталька (Сезон 1,2 / 01-66 серии из ~)- Год выпуска: 2012/2013
Страна: Украина
Жанр: Комедия, скетч, тв-шоу
Продолжительность: 66 х ~ 00:15:00
Перевод: Не требуется (Русско-Украинский)
Производство: Рога и копыта продакшн, телеканал ТЕТ
Режиссер: Иван Ясной, Дмитрий Карпенко, Алексей Даруга-В ролях: Гарик Бирча, Анна Лев, Вячеслав Комаров, Олеся Чечельницкая-Описание: Виталька живет с мамой, Мариной Францевна, которая видит в своем 30-летнем сыне милого бутузика, который, по-прежнему требует ее заботы и опеки. Самого же Виталька давно интересуют другие представительницы противоположного пола: с длинными ногами, грудастые, а главное - доступны. Виталька буквально помешан на сексе, готов заниматься им и днем и ночью, но ... кто же даст такому невзрачному неудачнику? Девушки любят грубых мачо, а не озабоченных доходяг. И что в таком случае остается делать самоуверенному и открытом для любви Витальке? Он идет в парк, клуб, ресторан, спортзал, и хотя бы к черту, лишь бы познакомиться, склеить, уломать на секс или хотя бы потрогать Машу, Наташу, Свету, Катю, Олю .... Парень не устает мечтать о том, что однажды одна из них скажет ему: "Можно и ко мне". Ради осуществления этой мечты Виталька готов на все. Ну, почти на все ... Ну, не готов совсем ни на что .... Но стоит меняться под изменчивый мир? Может, все же лучше изменить свою точку зрения на него?-Качество: SATRip
Формат: AVI
Видео кодек: XviD
Аудио кодек: MP3
Видео: MPEG4, XviD, 720x400 (16:9), 25.000 fps, 2 141 Kbps (0.297 bit/pixel)
Аудио: MP3, 48.0 KHz, 2 ch, 192 Kbps, CBR--

MediaInfo

Код:
Общее
Полное имя                               : E:\uTorrent\Віталька\Віталька (1).avi
Формат                                   : AVI
Формат/Информация                        : Audio Video Interleave
Размер файла                             : 249 Мбайт
Продолжительность                        : 14 м.
Общий поток                              : 2331 Кбит/сек
Программа кодирования                    : VirtualDubModRus 1.5.10.2 (build 2542/release)
Библиотека кодирования                   : VirtualDubMod build 2542/release
Видео
Идентификатор                            : 0
Формат                                   : MPEG-4 Visual
Профиль формата                          : Advanced [email protected]
Параметр BVOP формата                    : 2
Параметр QPel формата                    : Нет
Параметр GMC формата                     : Без точки перехода
Параметр матрицы формата                 : Default (H.263)
Режим смешивания                         : Сжатый битовый поток
Идентификатор кодека                     : XVID
Идентификатор кодека/Подсказка           : XviD
Продолжительность                        : 14 м.
Битрейт                                  : 2130 Кбит/сек
Ширина                                   : 720 пикселей
Высота                                   : 400 пикселей
Соотношение сторон                       : 5:4
Соотношение сторон в оригинале           : 16:9
Частота кадров                           : 25,000 кадров/сек
Цветовое пространство                    : YUV
Субдискретизация насыщенности            : 4:2:0
Битовая глубина                          : 8 бит
Тип развёртки                            : Прогрессивная
Метод сжатия                             : С потерями
Бит/(Пиксели*Кадры)                      : 0.296
Размер потока                            : 227 Мбайт (91%)
Библиотека кодирования                   : XviD 64
Аудио
Идентификатор                            : 1
Формат                                   : MPEG Audio
Версия формата                           : Version 1
Профиль формата                          : Layer 3
Режим                                    : Joint stereo
Идентификатор кодека                     : 55
Идентификатор кодека/Подсказка           : MP3
Продолжительность                        : 14 м.
Вид битрейта                             : Постоянный
Битрейт                                  : 192 Кбит/сек
Каналы                                   : 2 канала
Частота                                  : 48,0 КГц
Метод сжатия                             : С потерями
Размер потока                            : 20,5 Мбайт (8%)
Выравнивание                             : Разделение по промежуткам
Продолжительность промежутка             : 40  мс. (1,00 видеокадр)
Время предзагрузки промежутка            : 500  мс.
-

Скриншоты

         
-Раздача обновлена 25.05.13 - добавлены 51-66 серии-

_________________
Other forum [Profile] [PM]
Display posts from previous:    
Reply to topic

The time now is: Today 07:57

All times are GMT + 3 Hours



You cannot post new topics in this forum
You cannot reply to topics in this forum
You cannot edit your posts in this forum
You cannot delete your posts in this forum
You cannot vote in polls in this forum
You cannot attach files in this forum
You cannot download files in this forum