Today is a free download without charge Download

Однажды в Вегасе / What Happens in Vegas [ Том Вон / Tom Vaughan, США (2008) мелодрама, комедия, BDRip 1080p ]

Reply to topic
 
Author
Message

Delia ®

Gender:

Longevity: 10 years

Posts: 1821

Торрент-статистика

Post 18-Nov-2012 15:09

[Quote]

Однажды в ВегасеWhat Happens in Vegas«Ты везунчик!» Год выпуска: 2008
Страна: США
Жанр: мелодрама, комедия
Продолжительность: 01:40:46
Перевод: Профессиональный дублированный
Режиссер: Том Вон / Tom Vaughan В ролях: Кэмерон Диаз (Joy McNally), Эштон Катчер (Jack Fuller), Роб Кордри (Hater), Лэйк Белл (Tipper), Джейсон Судейкис (Mason), Трит Уильямс (Jack Fuller Sr.), Дирдри О’Коннелл (Mrs. Fuller), Мишель Крусик (Chong), Деннис Фарина (Banger), Зак Галифианакис (Dave the Bear), Куин Латифа (Dr. Twitchell), Кристен Риттер (Kelly)
Описание: После ночи кутежа в Городе Грехов двое совершенно незнакомых людей просыпаются в одной постели и пытаются восстановить ход событий вечера. Оказывается, они поженились и взяли огромный джек-пот. И вот на свежую голову молодожены (каждый сам про себя) разрабатывают план, как отделаться от своей «второй половины» и получить весь куш. Там, где замешаны деньги, нет места любви. Хотя в Вегасе случается всякое...

MPAA: - Детям до 13 лет просмотр не желателен

Качество: BDRip
Контейнер: MKV
Видео: AVC, 1920x816 (2.35:1), 10399 kbps, 23,976 fps, 0,277 bpp
Аудио №1: русский /; AC3 /; 5.1 /; 48 kHz /; 448 kbps /; 16 bit
Аудио №2: английский /; AC3 /; 5.1 /; 48 kHz /; 448 kbps /; 16 bit
Субтитры №1: русские
Субтитры №2: английские
Навигация по главам: есть

х264

x264 [info]: frame I:1414 Avg QP:18.47 size:219590
x264 [info]: frame P:28781 Avg QP:19.65 size: 93782
x264 [info]: frame B:114776 Avg QP:21.53 size: 41248

Media Info

General
Unique ID : 220343051112107071370109995649279795377 (0xA5C4872C26BBD029AF3EDDC70A1120B1)
Complete name : E:What.Happens.in.Vegas.2008.BDRip-F.HD.mkv
Format : Matroska
Format version : Version 2
File size : 7.95 GiB
Duration : 1h 40mn
Overall bit rate : 11.3 Mbps
Encoded date : UTC 2012-11-18 07:06:06
Writing application : mkvmerge v5.8.0 ('No Sleep / Pillow') built on Sep 2 2012 15:37:04
Writing library : libebml v1.2.3 + libmatroska v1.3.0
Video
ID : 1
Format : AVC
Format/Info : Advanced Video Codec
Format profile : [email protected]
Format settings, CABAC : Yes
Format settings, ReFrames : 5 frames
Codec ID : V_MPEG4/ISO/AVC
Duration : 1h 40mn
Bit rate : 10.4 Mbps
Width : 1 920 pixels
Height : 816 pixels
Display aspect ratio : 2.35:1
Frame rate : 23.976 fps
Color space : YUV
Chroma subsampling : 4:2:0
Bit depth : 8 bits
Scan type : Progressive
Bits/(Pixel*Frame) : 0.277
Stream size : 7.16 GiB (90%)
Writing library : x264 core 129 r2230 1cffe9f
Encoding settings : cabac=1 / ref=5 / deblock=1:-2:-2 / analyse=0x3:0x113 / me=umh / subme=10 / psy=1 / psy_rd=0.75:0.15 / mixed_ref=1 / me_range=32 / chroma_me=1 / trellis=2 / 8x8dct=1 / cqm=0 / deadzone=21,11 / fast_pskip=0 / chroma_qp_offset=-3 / threads=6 / lookahead_threads=1 / sliced_threads=0 / nr=0 / decimate=1 / interlaced=0 / bluray_compat=0 / constrained_intra=0 / bframes=9 / b_pyramid=2 / b_adapt=2 / b_bias=0 / direct=3 / weightb=1 / open_gop=0 / weightp=2 / keyint=240 / keyint_min=23 / scenecut=40 / intra_refresh=0 / rc=2pass / mbtree=0 / bitrate=10399 / ratetol=1.0 / qcomp=0.70 / qpmin=0 / qpmax=69 / qpstep=4 / cplxblur=20.0 / qblur=0.5 / ip_ratio=1.40 / pb_ratio=1.30 / aq=1:0.70
Language : English
Default : Yes
Forced : No
Color primaries : BT.709-5, BT.1361, IEC 61966-2-4, SMPTE RP177
Transfer characteristics : BT.709-5, BT.1361
Matrix coefficients : BT.709-5, BT.1361, IEC 61966-2-4 709, SMPTE RP177
Audio #1
ID : 2
Format : AC-3
Format/Info : Audio Coding 3
Mode extension : CM (complete main)
Codec ID : A_AC3
Duration : 1h 40mn
Bit rate mode : Constant
Bit rate : 448 Kbps
Channel(s) : 6 channels
Channel positions : Front: L C R, Side: L R, LFE
Sampling rate : 48.0 KHz
Bit depth : 16 bits
Compression mode : Lossy
Stream size : 323 MiB (4%)
Language : Russian
Default : Yes
Forced : No
Audio #2
ID : 3
Format : AC-3
Format/Info : Audio Coding 3
Mode extension : CM (complete main)
Codec ID : A_AC3
Duration : 1h 40mn
Bit rate mode : Constant
Bit rate : 448 Kbps
Channel(s) : 6 channels
Channel positions : Front: L C R, Side: L R, LFE
Sampling rate : 48.0 KHz
Bit depth : 16 bits
Compression mode : Lossy
Stream size : 323 MiB (4%)
Language : English
Default : No
Forced : No
Text #1
ID : 4
Format : UTF-8
Codec ID : S_TEXT/UTF8
Codec ID/Info : UTF-8 Plain Text
Language : Russian
Default : No
Forced : No
Text #2
ID : 5
Format : UTF-8
Codec ID : S_TEXT/UTF8
Codec ID/Info : UTF-8 Plain Text
Language : English
Default : No
Forced : No
Menu
00:00:00.000 : en:Main Titles/Opposites
00:03:16.363 : en:Life of the Party
00:05:30.872 : en:Big Surprise
00:07:28.657 : en:"Vegas!"
00:09:40.288 : en:Reservation Glitch
00:11:38.323 : en:Watch and Learn
00:13:15.712 : en:What Happens in Vegas
00:17:45.022 : en:Disaster Averted
00:23:01.672 : en:What's Yours is Ours
00:24:32.888 : en:Six Month Sentence
00:28:24.161 : en:Day One
00:31:53.912 : en:Bathroom Blues
00:35:00.432 : en:Counseling Session
00:39:30.410 : en:Plan B
00:48:44.839 : en:Happy Couple
00:51:48.522 : en:Subterfuge
00:56:26.425 : en:The In-Laws
01:01:12.627 : en:Family Picnic
01:05:49.612 : en:Company Retreat
01:11:03.301 : en:First Dance
01:17:23.848 : en:A Great Day
01:21:53.617 : en:Final Decree
01:28:53.828 : en:Jackpot
01:34:40.633 : en:Six Months Earlier/End Titles

Знаете ли Вы, что...

Последние две недели съемок проходили в Лас-Вегасе в помещении Planet Hollywood Resort and Casino.

Скриншоты

     
     

_________________
Человек – это канат, натянутый между животным и сверхчеловеком, – канат над пропастью.
В человеке ценно то, что он мост, а не цель. Фридрих Ницше
Other forum [Profile] [PM]
Display posts from previous:    
Reply to topic

The time now is: Today 05:29

All times are GMT + 3 Hours



You cannot post new topics in this forum
You cannot reply to topics in this forum
You cannot edit your posts in this forum
You cannot delete your posts in this forum
You cannot vote in polls in this forum
You cannot attach files in this forum
You cannot download files in this forum