Today is a free download without charge Download

Темный рыцарь: Возрождение легенды / The Dark Knight Rises (Кристофер Нолан) [2012 г., фантастика, боевик, триллер, драма, криминал, BDRip720p]

Reply to topic
 
Author
Message

sassad ®

Gender:

Longevity: 10 years

Posts: 1214

Location: Галич

Торрент-статистика

Post 18-Nov-2012 14:03

[Quote]

Темный рыцарь: Возрождение легенды / The Dark Knight Rises- Год выпуска: 2012
Страна: США, Великобритания
Жанр: фантастика, боевик, триллер, драма, криминал
Продолжительность: 165 мин. / 02:45
Перевод: Профессиональный(дублированный)-Режиссер: Кристофер Нолан
Продюссер: Кристофер Нолан, Чарльз Ровен, Эмма Томас
Сценарий: Кристофер Нолан, Джонатан Нолан, Боб Кейн
Бюджет: $250 000 000
Премьера в мире: 16 июля 2012
PG-13 - Детям до 13 лет просмотр не желателен
8.80 (418 357)

В ролях: : Кристиан Бэйл, Том Харди, Энн Хэтэуэй, Джозеф Гордон-Левитт, Марион Котийяр, Гари Олдман, Морган Фриман, Майкл Кейн, Мэтью Модайн, Бен Мендельсон, Дэниел Сунджата, Эйден Гиллен, Лиам Нисон, Алон Абутбул, Берн Горман, Нестор Карбонелл, Джуно Темпл, Брент Бриско, Регги Ли, Крис Эллис, Киллиан Мёрфи, Том Конти, Десмонд Харрингтон, Бретт Каллен, Джош Стюарт, Сэм Кеннард, Элиаш Тепина, Ник Джулиан, Миранда Нолан, Клер Элис Жюльен, Джозеф Лайл Тейлор, Тайлер Флорес, Дуан Генри, Джеймс Уорд, Гонсало Менендес, Камерон Джек, Алексис Дэниэл, Томас Леннон, Тревор Уайт-Описание: Восемь лет назад Бэтмен растворился в ночи, превратившись из героя в беглеца. Приняв на себя вину за смерть прокурора Харви Дента, Темный рыцарь пожертвовал всем. Вместе с комиссаром Гордоном они решили, что так будет лучше для всех. Пока преступность была раздавлена антикриминальным актом Дента, ложь действовала.Но с появлением хитрой воровки с загадочным прошлым всё меняется. Тем не менее, еще опаснее становится появление террориста Бэйна, чье лицо закрыто маской. Он разворачивает в Готэме чудовищную деятельность, вынуждая Брюса Уэйна выйти из импровизированного изгнания. Однако даже надев свой костюм, Бэтмен может проиграть Бэйну.-Качество: BDRip720p
Формат: MKV
Видео кодек: H.26x
Аудио кодек: AC3
Видео: MPEG-4 AVC, 5500 Кбит/с, 1280x720
Аудио: Русский (AC3, 6 ch, 384 Кбит/с), английский (DTS, 6 ch, 1510 Кбит/с), (AC3, 2 ch, 192 Кбит/с)

M.I

Код:
General
Unique ID : 183829567758260409336868988757577996527 (0x8A4C4973A69426E1A5C6FCEC561E98EF)
Complete name : Temnyj.rycar.Vozrozhdenie.legendy.2012.D.BDRip.720p.IRONCLUB.mkv
Format : Matroska
Format version : Version 2
File size : 8.72 GiB
Duration : 2h 44mn
Overall bit rate : 7 587 Kbps
Movie name : IRONCLUB
Encoded date : UTC 2012-11-18 10:09:15
Writing application : mkvmerge v4.9.1 ('Ich will') built on Jul 11 2011 23:53:15
Writing library : libebml v1.2.1 + libmatroska v1.1.1
Video
ID : 1
Format : AVC
Format/Info : Advanced Video Codec
Format profile : [email protected]
Format settings, CABAC : Yes
Format settings, ReFrames : 9 frames
Codec ID : V_MPEG4/ISO/AVC
Duration : 2h 44mn
Bit rate : 5 500 Kbps
Width : 1 280 pixels
Height : 720 pixels
Display aspect ratio : 16:9
Frame rate : 23.976 fps
Color space : YUV
Chroma subsampling : 4:2:0
Bit depth : 8 bits
Scan type : Progressive
Bits/(Pixel*Frame) : 0.249
Stream size : 6.15 GiB (71%)
Title : The.Dark.Knight.Rises.720p.BluRay.x264.DTS-HDChina
Writing library : x264 core 128 r2216+688+33 06dac27 tMod+MixAQ [[email protected]:2:0 X86_64]
Encoding settings : cabac=1 / ref=9 / deblock=1:-3:-3 / analyse=0x3:0x113 / me=umh / subme=10 / psy=1 / fade_compensate=0.00 / psy_rd=1.10:0.00 / mixed_ref=1 / me_range=32 / chroma_me=1 / trellis=2 / 8x8dct=1 / cqm=0 / deadzone=21,11 / fast_pskip=0 / chroma_qp_offset=-2 / threads=18 / lookahead_threads=3 / sliced_threads=0 / nr=0 / decimate=0 / interlaced=0 / bluray_compat=0 / constrained_intra=0 / fgo=0 / bframes=8 / b_pyramid=2 / b_adapt=2 / b_bias=0 / direct=3 / weightb=1 / open_gop=0 / weightp=2 / keyint=240 / keyint_min=24 / scenecut=40 / intra_refresh=0 / rc_lookahead=240 / rc=2pass / mbtree=1 / bitrate=5500 / ratetol=1.0 / qcomp=0.70 / qpmin=0 / qpmax=69 / qpstep=4 / cplxblur=20.0 / qblur=0.5 / ip_ratio=1.10 / aq=4 / aq-strength=0.90 / aq-sensitivity=10.00 / aq-ifactor=1.00 / aq-pfactor=1.00 / aq-bfactor=1.00 / aq2=0
Language : English
Default : Yes
Forced : Yes
Audio #1
ID : 2
Format : AC-3
Format/Info : Audio Coding 3
Mode extension : CM (complete main)
Format settings, Endianness : Big
Codec ID : A_AC3
Duration : 2h 44mn
Bit rate mode : Constant
Bit rate : 384 Kbps
Channel(s) : 6 channels
Channel positions : Front: L C R, Side: L R, LFE
Sampling rate : 48.0 KHz
Bit depth : 16 bits
Compression mode : Lossy
Stream size : 452 MiB (5%)
Title : DD 5.1 @ 384 kbps - Dub, R5
Language : Russian
Default : Yes
Forced : Yes
Audio #2
ID : 3
Format : DTS
Format/Info : Digital Theater Systems
Codec ID : A_DTS
Duration : 2h 44mn
Bit rate mode : Constant
Bit rate : 1 510 Kbps
Channel(s) : 6 channels
Channel positions : Front: L C R, Side: L R, LFE
Sampling rate : 48.0 KHz
Bit depth : 24 bits
Compression mode : Lossy
Stream size : 1.74 GiB (20%)
Title : DTS 5.1 @ 1536 kbps
Language : English
Default : No
Forced : No
Audio #3
ID : 4
Format : AC-3
Format/Info : Audio Coding 3
Format profile : Dolby Digital
Mode extension : CM (complete main)
Format settings, Endianness : Big
Codec ID : A_AC3
Duration : 2h 44mn
Bit rate mode : Constant
Bit rate : 192 Kbps
Channel(s) : 2 channels
Channel positions : Front: L R
Sampling rate : 48.0 KHz
Bit depth : 16 bits
Compression mode : Lossy
Stream size : 226 MiB (3%)
Title : commentary
Language : English
Default : No
Forced : No
Text #1
ID : 5
Format : UTF-8
Codec ID : S_TEXT/UTF8
Codec ID/Info : UTF-8 Plain Text
Language : English
Default : No
Forced : No
Text #2
ID : 6
Format : UTF-8
Codec ID : S_TEXT/UTF8
Codec ID/Info : UTF-8 Plain Text
Title : SDH
Language : English
Default : No
Forced : No
Menu
00:00:00.000 : en:00:00:00.000
00:09:02.834 : en:00:09:02.834
00:19:08.522 : en:00:19:08.522
00:30:15.856 : en:00:30:15.856
00:41:08.800 : en:00:41:08.800
00:51:09.525 : en:00:51:09.525
01:00:29.668 : en:01:00:29.668
01:10:04.033 : en:01:10:04.033
01:20:13.475 : en:01:20:13.475
01:31:00.580 : en:01:31:00.580
01:39:24.292 : en:01:39:24.292
01:48:58.490 : en:01:48:58.490
02:00:21.589 : en:02:00:21.589
02:10:47.673 : en:02:10:47.673
02:19:12.636 : en:02:19:12.636
02:30:14.631 : en:02:30:14.631
02:36:50.526 : en:02:36:50.526

Скриншоты

     

_________________
Other forum [Profile] [PM]
Display posts from previous:    
Reply to topic

The time now is: Today 09:09

All times are GMT + 3 Hours



You cannot post new topics in this forum
You cannot reply to topics in this forum
You cannot edit your posts in this forum
You cannot delete your posts in this forum
You cannot vote in polls in this forum
You cannot attach files in this forum
You cannot download files in this forum