Today is a free download without charge Download

Рожденный в песках / The Young Black Stallion (Джейсон Бурк) [2003., Фантастика, Боевик, DVD9]

Reply to topic
 
Author
Message

Meshanik ®

Gender:

Longevity: 8 years 10 months

Posts: 3866

Location: Los Angeles

Торрент-статистика

Post 18-Nov-2012 10:41

[Quote]

Супершторм / Seattle Superstorm-
Русское название: Супершторм
Оригинальное название: Seattle Superstorm
Год выпуска: 2012
Жанр: Фантастика, Боевик
Продолжительность: 01:24:31
Перевод: Многоголосый закадровый (Лицензия)
Язык субтитров: русский
Вид субтитров: Вшитые отключаемые-Дата мировой премьеры: 31 марта 2012, ...
Дата выхода DVD релиза: 6 ноября 2012, «Lizard Cinema Trade»-Режиссер: Джейсон Бурк
В ролях: Эсай Моралес, Она Грауэр, Джаред Абрахамсон, МакКензи Портер, Мартин Камминс, Мишель Харрисон, Джей Бразо, Томас Брэдшоу, Джон Джонсон, Оуэн Квонг-Описание фильма:
Военные сбивают НЛО над западным побережьем США, и это становится причиной ряда экстремальных погодных явлений.-Качество видео: DVD5
Видеокодек: MPEG-2
Битрейт видео: ~5174 Кбит/сек
Размер кадра: 720 х [email protected] х 576
Аудио 1: AC3 5.1, 448 Кбит/сек, русский (Многоголосый закадровый)
Аудио 2: AC3 2.0, 192 Кбит/сек, русский (Многоголосый закадровый)
Аудио 3: AC3 2.0, 192 Кбит/сек, английский
-

Дополнительная информация:

Дополнительные материалы: отсутствуют
Меню: на русском языке

MediaInfo:

Код:
Общее
Полное имя : F:Superstorm.2012.P.DVD5\VIDEO_TS\VTS_02_2.VOB
Формат : MPEG-PS
Размер файла : 1024 Мбайт
Продолжительность : 23 м.
Общий поток : 6128 Кбит/сек
Видео
Идентификатор : 224 (0xE0)
Формат : MPEG Video
Версия формата : Version 2
Профиль формата : [email protected]
Параметр BVOP формата : Да
Параметр матрицы формата : По умолчанию
Параметры GOP формата : M=3, N=12
Продолжительность : 23 м.
Вид битрейта : Переменный
Битрейт : 5174 Кбит/сек
Номинальный битрейт : 8000 Кбит/сек
Ширина : 720 пикс.
Высота : 576 пикс.
Соотношение сторон : 16:9
Частота кадров : 25,000 кадр/сек
Стандарт вещания : PAL
Цветовое пространство : YUV
Подвыборка цветности : 4:2:0
Битовая глубина : 8 бит
Тип развёртки : Прогрессивная
Метод сжатия : С потерями
Бит/(Пиксели*Кадры) : 0.499
Размер потока : 864 Мбайт (84%)
Аудио #1
Идентификатор : 189 (0xBD)-128 (0x80)
Формат : AC-3
Формат/Информация : Audio Coding 3
Расширение режима : CM (complete main)
Режим смешивания : DVD-Video
Продолжительность : 23 м.
Вид битрейта : Постоянный
Битрейт : 448 Кбит/сек
Каналы : 6 каналов
Расположение каналов : Front: L C R, Side: L R, LFE
Частота : 48,0 КГц
Битовая глубина : 16 бит
Метод сжатия : С потерями
Задержка видео : -672 мс.
Размер потока : 74,9 Мбайт (7%)
Аудио #2
Идентификатор : 189 (0xBD)-129 (0x81)
Формат : AC-3
Формат/Информация : Audio Coding 3
Расширение режима : CM (complete main)
Режим смешивания : DVD-Video
Продолжительность : 23 м.
Вид битрейта : Постоянный
Битрейт : 192 Кбит/сек
Каналы : 2 канала
Расположение каналов : Front: L R
Частота : 48,0 КГц
Битовая глубина : 16 бит
Метод сжатия : С потерями
Задержка видео : -608 мс.
Размер потока : 32,1 Мбайт (3%)
Аудио #3
Идентификатор : 189 (0xBD)-130 (0x82)
Формат : AC-3
Формат/Информация : Audio Coding 3
Расширение режима : CM (complete main)
Режим смешивания : DVD-Video
Продолжительность : 23 м.
Вид битрейта : Постоянный
Битрейт : 192 Кбит/сек
Каналы : 2 канала
Расположение каналов : Front: L R
Частота : 48,0 КГц
Битовая глубина : 16 бит
Метод сжатия : С потерями
Задержка видео : -608 мс.
Размер потока : 32,1 Мбайт (3%)
Текст
Идентификатор : 189 (0xBD)-32 (0x20)
Формат : RLE
Формат/Информация : Run-length encoding
Режим смешивания : DVD-Video
Задержка видео : 1 с. 200 мс.
Меню

DVDInfo:

Код:
Title: Superstorm.2012.P.DVD5
Size: 3.86 Gb ( 4 044 560,00 KBytes ) - DVD-5
Enabled regions: 1, 2, 3, 4, 5, 6, 7, 8
VTS_01 :
Play Length: 00:00:20+{00:00:20}+{00:00:20}
Video: PAL 4:3 (720x576) VBR
Audio:
Russian (Dolby AC3, 2 ch)
English (Dolby AC3, 6 ch)
English (Dolby AC3, 6 ch)
VTS_02 :
Play Length: 01:24:31
Video: PAL 16:9 (720x576) VBR, Auto Pan&Scan, Auto Letterboxed
Audio:
Russian (Dolby AC3, 6 ch)
Russian (Dolby AC3, 2 ch)
English (Dolby AC3, 2 ch)
Subtitles:
Russian
* Menus Information *
VIDEO_TS Menu
Video:
PAL 4:3 (720x576) VBR
English Language Unit :
Title Menu
VTS_01 Menu
Video:
PAL 4:3 (720x576) VBR
Audio:
Not specified (Dolby AC3, 2 ch)
English Language Unit :
Root Menu
Chapter (PTT) Menu
VTS_02 Menu
Video:
PAL 4:3 (720x576) VBR
English Language Unit :
Root Menu
Subpicture Menu
Audio Menu
Chapter (PTT) Menu

Скриншоты меню:

   

Скриншоты:

         
         
-
Other forum [Profile] [PM]

Dracula

Longevity: 7 years 5 months

Posts: 11219

Торрент-статистика

Post 21-Nov-2012 00:12 (after 2 days 13 hours)

Топик был перенесен из форума Фильмы 2012 (новинки) в форум Зарубежное кино (DVD)


sassad
 
Display posts from previous:    
Reply to topic

The time now is: Today 11:20

All times are GMT + 3 Hours



You cannot post new topics in this forum
You cannot reply to topics in this forum
You cannot edit your posts in this forum
You cannot delete your posts in this forum
You cannot vote in polls in this forum
You cannot attach files in this forum
You cannot download files in this forum