Today is a free download without charge Download

Автошкола. Выпуск №5 (2012) SATRip

Reply to topic
 
Author
Message

Koralina ®

Longevity: 10 years

Posts: 994

Location: Lithuania

Торрент-статистика

Post 17-Nov-2012 23:55

[Quote]

Автошкола. Выпуск №5 (2012) SATRip -
Режиссер / Телекомпания: Перец
Русское название: Автошкола
Год выпуска: 2012
Жанр: Тв-Шоу, юмор
Описание:
Они путают газ с тормозом. Не могут отличить ПДД от ДТП. Для них слова "автострада" и "страдание" - однокоренные. Но им очень нужны водительские права! "Автошкола" - это первое российское реалити на колёсах: одиннадцать закоренелых пешеходов поборются за звание водителей. Перец даёт бедолагам последний шанс влиться в дорожный поток. Шутки кончились: перевоспитанием пешеходов займутся матёрые профессионалы. Инструкторам "Автошколы" понадобятся крепкие нервы, ведь им предстоит работать с настоящим дорожным кошмаром - "блондинками" и "чайниками".
Продолжительность: ~ 00:23:03
Видеокодек: DviX
Битрейт видео: ~1633 kb/s
Размер кадра: 720 x 528
Качество видео: SATRip
Аудиокодек: MP3, 2ch.
Битрейт аудио: 128 kb/s

MediaInfo

Формат : AVI
Формат/Информация : Audio Video Interleave
Размер файла : 291 Мбайт
Продолжительность : 23 м.
Общий поток : 1763 Кбит/сек
Программа кодирования : VirtualDubModRus 1.5.10.2 (build 2542/release)
Библиотека кодирования : VirtualDubMod build 2542/release
Видео
Идентификатор : 0
Формат : MPEG-4 Visual
Параметр BVOP формата : 1
Параметр QPel формата : Нет
Параметр GMC формата : Без точки перехода
Параметр матрицы формата : Default (H.263)
Режим смешивания : Сжатый битовый поток
Идентификатор кодека : DX50
Идентификатор кодека/Подсказка : DivX 5
Продолжительность : 23 м.
Битрейт : 1625 Кбит/сек
Ширина : 720 пикселей
Высота : 528 пикселей
Соотношение сторон : 4:3
Частота кадров : 25,000 кадров/сек
Цветовое пространство : YUV
Субдискретизация насыщенности : 4:2:0
Битовая глубина : 8 бит
Тип развёртки : Прогрессивная
Метод сжатия : С потерями
Бит/(Пиксели*Кадры) : 0.171
Размер потока : 268 Мбайт (92%)
Библиотека кодирования : DivX 6.8.5 (UTC 2009-08-20)
Аудио
Идентификатор : 1
Формат : MPEG Audio
Версия формата : Version 1
Профиль формата : Layer 3
Режим : Joint stereo
Расширение режима : MS Stereo
Идентификатор кодека : 55
Идентификатор кодека/Подсказка : MP3
Продолжительность : 23 м.
Вид битрейта : Постоянный
Битрейт : 128 Кбит/сек
Каналы : 2 канала
Частота : 48,0 КГц
Метод сжатия : С потерями
Размер потока : 21,1 Мбайт (7%)
Выравнивание : Разделение по промежуткам
Продолжительность промежутка : 40 мс. (1,00 видеокадр)
Время предзагрузки промежутка : 500 мс.
Скриншоты:          

_________________
Other forum [Profile] [PM]
Display posts from previous:    
Reply to topic

The time now is: Today 06:14

All times are GMT + 3 Hours



You cannot post new topics in this forum
You cannot reply to topics in this forum
You cannot edit your posts in this forum
You cannot delete your posts in this forum
You cannot vote in polls in this forum
You cannot attach files in this forum
You cannot download files in this forum