Today is a free download without charge Download

Halo 4: Идущий к рассвету / Halo 4: Forward Unto Dawn (Стюарт Хендлер) [2012., Фантастика, BDRip, 720p] + [Ehg / Eng Sub]

Reply to topic
 
Author
Message

Meshanik ®

Gender:

Longevity: 8 years 10 months

Posts: 3866

Location: Los Angeles

Торрент-статистика

Post 17-Nov-2012 20:11

[Quote]

Halo 4: Идущий к рассвету / Halo 4: Forward Unto Dawn- Русское название: Halo 4: Идущий к рассвету
Оригинальное название: Halo 4: Forward Unto Dawn
Год выпуска: 2012
Жанр: Фантастика
Продолжительность: 01:31:23
Перевод: Отсутствует
Язык: Английский
Язык субтитров: Английские
Вид субтитров: Вшитые, отключаемые-Режиссер: Стюарт Хендлер
В ролях: Айэйн Белчер, Дженна Берман, Эниша Брюстер, Осрик Чау, Дэниэл Кадмор, Майк Допуд, Стив Даунс, Том Грин, Масам Холден, Анна Попплуэлл, Крис Шилдс, Айелет Зурер-Описание фильма:
Эта история возвращает игроков к началу войны между людьми и Ковенантами и подводит к событиям, происходящим в игре Halo 4. В стенах военной академии Космического Командования Объединённых Наций (UNSC) группу курсантов знатного происхождения готовят стать следующим поколением солдат в надвигающейся войне между UNCS и повстанцами на колониальных планетах. Один из кадетов, Томас Ласки, ведет внутреннюю борьбу, преодолевая сомнения по поводу войны и опасения не оправдать высоких ожиданий командования. К тому моменту, как Ласки смирился со своей ролью будущего командира, ужасающее войско альянса Ковенант вторгается на планету и переворачивает привычный мир героя с ног на голову. Вдохновлённый подвигами Мастера Чифа, Ласки должен на собственном опыте узнать, что значит быть героем.- -Видеокодек: MPEG-4 AVC/H.264
Битрейт видео: ~5 333 Kbps
Размер кадра: 1280x536
Качество видео: BDRip
Аудиокодек: DTS : 6 channels
Битрейт аудио: 1 510 Kbps
-

MediaInfo

General
Complete name Halo 4 Forward Unto Dawn.mkv
Format : Matroska
Format version : Version 2
File size : 4.37 GiB
Duration : 1h 31mn
Overall bit rate : 6 844 Kbps
Writing application : mkvmerge v4.1.1 built on Jul 3 2010 22:54:08
Writing library : libebml v1.0.0 + libmatroska v1.0
Video
ID : 1
Format : AVC
Format/Info : Advanced Video Codec
Format profile : [url=mailto:[email protected]][email protected][/url]
Format settings, CABAC : Yes
Format settings, ReFrames : 5 frames
Codec ID : V_MPEG4/ISO/AVC
Duration : 1h 31mn
Bit rate : 5 333 Kbps
Width : 1 280 pixels
Height : 536 pixels
Display aspect ratio : 2.40:1
Frame rate : 23.976 fps
Color space : YUV
Chroma subsampling : 4:2:0
Bit depth : 8 bits
Scan type : Progressive
Bits/(Pixel*Frame) : 0.324
Stream size : 3.32 GiB (76%)
Language : English
Default : Yes
Forced : No
Audio
ID : 2
Format : DTS
Format/Info : Digital Theater Systems
Codec ID : A_DTS
Duration : 1h 31mn
Bit rate mode : Constant
Bit rate : 1 510 Kbps
Channel(s) : 6 channels
Channel positions : Front: L C R, Side: L R, LFE
Sampling rate : 48.0 KHz
Bit depth : 24 bits
Compression mode : Lossy
Stream size : 987 MiB (22%)
Language : English
Default : Yes
Forced : No
Text
ID : 3
Format : UTF-8
Codec ID : S_TEXT/UTF8
Codec ID/Info : UTF-8 Plain Text
Language : English
Default : No
Forced : No

Screenlist

 
Скриншоты:        
Other forum [Profile] [PM]

Dracula

Longevity: 7 years 5 months

Posts: 11215

Торрент-статистика

Post 21-Nov-2012 00:13 (after 3 days)

Топик был перенесен из форума Фильмы 2012 (новинки) в форум Зарубежное кино (HD Video)


sassad
 
Display posts from previous:    
Reply to topic

The time now is: Today 13:51

All times are GMT + 3 Hours



You cannot post new topics in this forum
You cannot reply to topics in this forum
You cannot edit your posts in this forum
You cannot delete your posts in this forum
You cannot vote in polls in this forum
You cannot attach files in this forum
You cannot download files in this forum