Today is a free download without charge Download

Halo 4: Идущий к рассвету / Halo 4: Forward Unto Dawn (Стюарт Хендлер) [2012., Фантастика, BDRip, 720p]

Reply to topic
 
Author
Message

Meshanik ®

Gender:

Longevity: 8 years 10 months

Posts: 3866

Location: Los Angeles

Торрент-статистика

Post 17-Nov-2012 19:37

[Quote]

Halo 4: Идущий к рассвету / Halo 4: Forward Unto Dawn«The story of Halo 4 begins at dawn»- Русское название: Halo 4: Идущий к рассвету
Оригинальное название: Halo 4: Forward Unto Dawn
Год выпуска: 2012
Производство: Vancouver / British Columbia / 343 Industries [США]
Жанр: Фантастика
Продолжительность: 01:31:34
Перевод: Многоголосый закадровый, любительский
Озвучка / Автор перевода: StopGame
Субтитры: Вшитые отключаемые
Язык субтитров: Английский-Дата мировой премьеры: 5 октября 2012
Режиссер: Стюарт Хендлер
В ролях: Айэйн Белчер, Осрик Чау, Дэниэл Кадмор, Майк Допуд, Стив Даунс, Том Грин, Масам Холден, Анна Попплуэлл, Крис Шилдс-
Эта история возвращает игроков к началу войны между людьми и Ковенантами и подводит к событиям, происходящим в игре Halo 4. В стенах военной академии Космического Командования Объединённых Наций (UNSC) группу курсантов знатного происхождения готовят стать следующим поколением солдат в надвигающейся войне между UNCS и повстанцами на колониальных планетах. Один из кадетов, Томас Ласки, ведет внутреннюю борьбу, преодолевая сомнения по поводу войны и опасения не оправдать высоких ожиданий командования. К тому моменту, как Ласки смирился со своей ролью будущего командира, ужасающее войско альянса Ковенант вторгается на планету и переворачивает привычный мир героя с ног на голову. Вдохновлённый подвигами Мастера Чифа, Ласки должен на собственном опыте узнать, что значит быть героем.-Примечание: В начале отсутствует около 5 минут перевода!- -Качество видео: BDRip
Видео: MPEG4_AVC/H.264, 1280x536, ~5333 kbps, Bit/Pixel: 0.324
Аудио 1: AC3 2.0, 192 kbps [Русский - многоголосый закадровый]
Аудио 2: DTS 5.1, 1510 kbps [Английский - оригинал]

MediaInfo...

Полное имя : D:\Halo.4.Идущий.к.рассвету-Halo.4.Forward.Unto.Dawn.(2012).[720p].BDRip.mkv
Формат : Matroska
Версия формата : Version 2
Размер файла : 4,49 Гбайт
Продолжительность : 1 ч. 31 м.
Общий поток : 7023 Кбит/сек
Дата кодирования : UTC 2012-11-16 19:59:38
Программа кодирования : mkvmerge v5.5.0 ('Healer') built on Apr 6 2012 21:43:24
Библиотека кодирования : libebml v1.2.3 + libmatroska v1.3.0
Видео
Идентификатор : 1
Формат : AVC
Формат/Информация : Advanced Video Codec
Профиль формата : [url=mailto:[email protected]][email protected][/url]
Параметр CABAC формата : Да
Параметр ReFrames формата : 5 кадров
Идентификатор кодека : V_MPEG4/ISO/AVC
Продолжительность : 1 ч. 31 м.
Битрейт : 5333 Кбит/сек
Ширина : 1280 пикселей
Высота : 536 пикселей
Соотношение сторон : 2,40:1
Режим частоты кадров : Постоянный
Частота кадров : 23,976 кадра/сек
Цветовое пространство : YUV
Субдискретизация насыщенности : 4:2:0
Битовая глубина : 8 бит
Тип развёртки : Прогрессивная
Бит/(Пиксели*Кадры) : 0.324
Размер потока : 3,31 Гбайт (74%)
Библиотека кодирования : x264 core 129 r2230 1cffe9f
Настройки программы : cabac=1 / ref=5 / deblock=1:0:0 / analyse=0x3:0x133 / me=umh / subme=7 / psy=1 / psy_rd=1.00:0.00 / mixed_ref=1 / me_range=16 / chroma_me=1 / trellis=1 / 8x8dct=1 / cqm=0 / deadzone=21,11 / fast_pskip=0 / chroma_qp_offset=-2 / threads=12 / lookahead_threads=2 / sliced_threads=0 / nr=0 / decimate=1 / interlaced=0 / bluray_compat=0 / constrained_intra=0 / bframes=3 / b_pyramid=2 / b_adapt=1 / b_bias=0 / direct=1 / weightb=1 / open_gop=0 / weightp=2 / keyint=250 / keyint_min=23 / scenecut=40 / intra_refresh=0 / rc_lookahead=40 / rc=2pass / mbtree=1 / bitrate=5333 / ratetol=1.0 / qcomp=0.60 / qpmin=0 / qpmax=69 / qpstep=4 / cplxblur=20.0 / qblur=0.5 / ip_ratio=1.40 / aq=1:1.00
Язык : English
Default : Да
Forced : Нет
Аудио #1
Идентификатор : 2
Формат : AC-3
Формат/Информация : Audio Coding 3
Расширение режима : CM (complete main)
Параметр Endianness формата : Big
Идентификатор кодека : A_AC3
Продолжительность : 1 ч. 31 м.
Вид битрейта : Постоянный
Битрейт : 192 Кбит/сек
Каналы : 2 канала
Расположение каналов : Front: L R
Частота : 48,0 КГц
Битовая глубина : 16 бит
Метод сжатия : С потерями
Размер потока : 126 Мбайт (3%)
Язык : Russian
Default : Да
Forced : Нет
Аудио #2
Идентификатор : 3
Формат : DTS
Формат/Информация : Digital Theater Systems
Идентификатор кодека : A_DTS
Продолжительность : 1 ч. 31 м.
Вид битрейта : Постоянный
Битрейт : 1510 Кбит/сек
Каналы : 6 каналов
Расположение каналов : Front: L C R, Side: L R, LFE
Частота : 48,0 КГц
Битовая глубина : 24 бит
Метод сжатия : С потерями
Размер потока : 989 Мбайт (21%)
Язык : English
Default : Нет
Forced : Нет
Текст
Идентификатор : 4
Формат : UTF-8
Идентификатор кодека : S_TEXT/UTF8
Идентификатор кодека/Информация : UTF-8 Plain Text
Язык : English
Default : Нет
Forced : Нет
Меню
00:00:00.000 : en:00:00:00.000
00:04:14.546 : en:00:04:14.546
00:07:44.464 : en:00:07:44.464
00:08:31.928 : en:00:08:31.928
00:12:39.968 : en:00:12:39.968
00:16:24.692 : en:00:16:24.692
00:20:13.212 : en:00:20:13.212
00:25:52.968 : en:00:25:52.968
00:28:22.200 : en:00:28:22.200
00:31:57.207 : en:00:31:57.207
00:36:17.842 : en:00:36:17.842
00:40:53.868 : en:00:40:53.868
00:44:32.461 : en:00:44:32.461
00:46:29.495 : en:00:46:29.495
00:49:45.441 : en:00:49:45.441
00:53:58.402 : en:00:53:58.402
00:57:03.086 : en:00:57:03.086
01:03:23.133 : en:01:03:23.133
01:08:56.257 : en:01:08:56.257
01:12:07.156 : en:01:12:07.156
01:18:15.357 : en:01:18:15.357
01:24:02.079 : en:01:24:02.079

Скриншоты:

       
       
-
Other forum [Profile] [PM]

Dracula

Longevity: 7 years 5 months

Posts: 11216

Торрент-статистика

Post 21-Nov-2012 00:13 (after 3 days)

Топик был перенесен из форума Фильмы 2012 (новинки) в форум Зарубежное кино (HD Video)


sassad
 
Display posts from previous:    
Reply to topic

The time now is: Today 10:09

All times are GMT + 3 Hours



You cannot post new topics in this forum
You cannot reply to topics in this forum
You cannot edit your posts in this forum
You cannot delete your posts in this forum
You cannot vote in polls in this forum
You cannot attach files in this forum
You cannot download files in this forum