Today is a free download without charge Download

Быстрее пули / Faster (2010) HDRip

Reply to topic
 
Author
Message

Varius ®

Gender:

Longevity: 10 years

Posts: 2428

Location: Hell

Торрент-статистика

Post 23-Mar-2011 22:26

[Quote]

Быстрее пули / Faster (2010) HDRip- Русское название: Быстрее пули
Оригинальное название: Faster
Год выпуска: 2010
Производство: США / CBS Films
Жанр: Боевик, Триллер, Драма, Криминал
Перевод: Дублированный [Лицензия]
Субтитры: Нет-Дата мировой премьеры: 4 ноября 2010
Дата выхода DVD релиза: 14 апреля 2011, «Columbia/Sony»,
Бюджет: $24 000 000
Сборы в мире: $29 025 078-Режиссер: Джордж Тиллман Мл.
Продюсер: Тони Гэйтон, Лиз Глоцер, Мартин Шэфер
Актеры: Дуэйн Джонсон, Билли Боб Торнтон, Оливер Джексон-Коэн, Карла Гуджино, Мэгги Грэйс, Мун Бладгуд, Адевале Акиннуойе-Агбадже, Том Беренджер, Маурицио Лопез, Джим Гейнс-Описание фильма:
Бывший преступник мстит за убийство родного брата во время ограбления десять лет назад, когда кто-то подставил нечистых на руку родственников.-Релиз группа:
Продолжительность: 01:37:57
Качество видео: HDRip
Видеокодек: Xvid
Битрейт видео: ~1542 Кбит/сек
Размер кадра: 720x304
Аудио: AC3, 6 ch, 448 Кбит/сек - Русский Дублированный [Лицензия]-«Правосудие не для всех»- -Скриншоты:
      

MediaInfo

Общее
Полное имя : D:\Faster_2010_HDRip.avi
Формат : AVI
Формат/Информация : Audio Video Interleave
Размер файла : 1,37 Гбайт
Продолжительность : 1 ч. 37 м.
Общий поток : 1999 Кбит/сек
Программа кодирования : VirtualDubMod 1.5.4.1 (build 2178/release)
Библиотека кодирования : VirtualDubMod build 2178/release
Видео
Идентификатор : 0
Формат : MPEG-4 Visual
Профиль формата : Advanced [email protected]
Параметр BVOP формата : 2
Параметр QPel формата : Нет
Параметр GMC формата : Без точки перехода
Параметр матрицы формата : Выборочная
Идентификатор кодека : XVID
Идентификатор кодека/Подсказка : XviD
Продолжительность : 1 ч. 37 м.
Битрейт : 1542 Кбит/сек
Ширина : 720 пикс.
Высота : 304 пикс.
Соотношение сторон : 2,35:1
Частота кадров : 23,976 кадр/сек
Цветовое пространство : YUV
Подвыборка цветности : 4:2:0
Битовая глубина : 8 бит
Тип развёртки : Прогрессивная
Метод сжатия : С потерями
Бит/(Пиксели*Кадры) : 0.294
Размер потока : 1,06 Гбайт (77%)
Библиотека кодирования : XviD 58
Аудио
Идентификатор : 1
Формат : AC-3
Формат/Информация : Audio Coding 3
Расширение режима : CM (complete main)
Идентификатор кодека : 2000
Продолжительность : 1 ч. 37 м.
Вид битрейта : Постоянный
Битрейт : 448 Кбит/сек
Канал(ы) : 6 канала(ов)
Расположение каналов : Front: L C R, Side: L R, LFE
Частота : 48,0 КГц
Битовая глубина : 16 бит
Метод сжатия : С потерями
Размер потока : 314 Мбайт (22%)
Выравнивание : Разделение по промежуткам
Продолжительность промежутка : 42 мс. (1,00 видеокадр)
Время предзагрузки промежутка : 500 ms

_________________

Создавая "Новую папку", не считайте себя Создателем - это право Вам дано Админом




Last edited by Varius on 2011-03-23 23:45; edited 3 times in total
Other forum [Profile] [PM]
Similar theme
Forum Topic Author Torrent Replies Last Post
./templates/default/images/folder_dl.gif Психология, Тренинг, Саморазвитие Даниэль Канеман | Думай медленно… Решай быстро (2013) [EPUB, FB2, MOBI] moralis
1 | 0

0 | 1407

10

2016-09-03 12:55
moralis Latest
Display posts from previous:    
Reply to topic

The time now is: Today 21:09

All times are GMT + 3 Hours



You cannot post new topics in this forum
You cannot reply to topics in this forum
You cannot edit your posts in this forum
You cannot delete your posts in this forum
You cannot vote in polls in this forum
You cannot attach files in this forum
You cannot download files in this forum