Today is a free download without charge Download

Быстрее пули / Faster (2010) DVD9

Reply to topic
 
Author
Message

Varius ®

Gender:

Longevity: 9 years 7 months

Posts: 2416

Location: Hell

Торрент-статистика

Post 23-Mar-2011 22:13

[Quote]

Быстрее пули / Faster (2010) DVD9- Русское название: Быстрее пули
Оригинальное название: Faster
Год выпуска: 2010
Производство: США / CBS Films
Жанр: Боевик, Триллер, Драма, Криминал
Перевод: Дублированный [Лицензия]
Субтитры: Русские, Английские, Хинди, Арабские, Эстонские, Иврит, Литовские-Дата мировой премьеры: 4 ноября 2010
Дата выхода DVD релиза: 14 апреля 2011, «Columbia/Sony»
Бюджет: $24 000 000
Сборы в мире: $29 025 078-Режиссер: Джордж Тиллман Мл.
Продюсер: Тони Гэйтон, Лиз Глоцер, Мартин Шэфер
Актеры: Дуэйн Джонсон, Билли Боб Торнтон, Оливер Джексон-Коэн, Карла Гуджино, Мэгги Грэйс, Мун Бладгуд, Адевале Акиннуойе-Агбадже, Том Беренджер, Маурицио Лопез, Джим Гейнс-Описание фильма:
Бывший преступник мстит за убийство родного брата во время ограбления десять лет назад, когда кто-то подставил нечистых на руку родственников.-Релиз группа:
Продолжительность: 01:33:58
Качество видео: DVD9
Контейнер: DVD Video
Видеокодек: MPEG-2
Битрейт видео: ~5281 Кбит/сек
Размер кадра: PAL 16:9 (720x576)
Аудио №1: Dolby AC3, 6 ch, 448 Кбит/сек - Русский Дублированный [Лицензия]
Аудио №2: Dolby AC3, 6 ch, 448 Кбит/сек - Английский
Аудио №3: Dolby AC3, 6 ch, 448 Кбит/сек - Хинди
Аудио №4: Dolby AC3, 6 ch, 448 Кбит/сек - Украинский
Аудио №5: Dolby AC3, 6 ch, 448 Кбит/сек - Тамильский (Индия, Шри-Ланка, Сингапур, Малайзия, Кения)
Дополнительно: Альтернативный финал, Удаленные сцены-«Правосудие не для всех»- -Скриншоты:
       

MediaInfo

Общее
Полное имя : D:\Faster_2010_DVD9\VIDEO_TS\VTS_01_3.VOB
Формат : MPEG-PS
Размер файла : 1024 Мбайт
Продолжительность : 18 м.
Общий поток : 7673 Кбит/сек
Видео
Идентификатор : 224 (0xE0)
Формат : MPEG Video
Версия формата : Version 2
Профиль формата : [email protected]
Параметр BVOP формата : Да
Параметр матрицы формата : По умолчанию
Продолжительность : 18 м.
Вид битрейта : Переменный
Битрейт : 5281 Кбит/сек
Номинальный битрейт : 9800 Кбит/сек
Ширина : 720 пикс.
Высота : 576 пикс.
Соотношение сторон : 16:9
Частота кадров : 25,000 кадр/сек
Стандарт вещания : PAL
Цветовое пространство : YUV
Подвыборка цветности : 4:2:0
Битовая глубина : 8 бит
Тип развёртки : Прогрессивная
Порядок развёртки : Верхнее поле первое
Метод сжатия : С потерями
Бит/(Пиксели*Кадры) : 0.509
Размер потока : 705 Мбайт (69%)
Аудио #1
Идентификатор : 189 (0xBD)-128 (0x80)
Формат : AC-3
Формат/Информация : Audio Coding 3
Расширение режима : CM (complete main)
Режим смешивания : DVD-Video
Продолжительность : 18 м.
Вид битрейта : Постоянный
Битрейт : 448 Кбит/сек
Канал(ы) : 6 канала(ов)
Расположение каналов : Front: L C R, Side: L R, LFE
Частота : 48,0 КГц
Битовая глубина : 16 бит
Метод сжатия : С потерями
Задержка видео : -736 мс.
Размер потока : 59,8 Мбайт (6%)
Аудио #2
Идентификатор : 189 (0xBD)-129 (0x81)
Формат : AC-3
Формат/Информация : Audio Coding 3
Расширение режима : CM (complete main)
Режим смешивания : DVD-Video
Продолжительность : 18 м.
Вид битрейта : Постоянный
Битрейт : 448 Кбит/сек
Канал(ы) : 6 канала(ов)
Расположение каналов : Front: L C R, Side: L R, LFE
Частота : 48,0 КГц
Битовая глубина : 16 бит
Метод сжатия : С потерями
Задержка видео : -736 мс.
Размер потока : 59,8 Мбайт (6%)
Аудио #3
Идентификатор : 189 (0xBD)-130 (0x82)
Формат : AC-3
Формат/Информация : Audio Coding 3
Расширение режима : CM (complete main)
Режим смешивания : DVD-Video
Продолжительность : 18 м.
Вид битрейта : Постоянный
Битрейт : 448 Кбит/сек
Канал(ы) : 6 канала(ов)
Расположение каналов : Front: L C R, Side: L R, LFE
Частота : 48,0 КГц
Битовая глубина : 16 бит
Метод сжатия : С потерями
Задержка видео : -736 мс.
Размер потока : 59,8 Мбайт (6%)
Аудио #4
Идентификатор : 189 (0xBD)-131 (0x83)
Формат : AC-3
Формат/Информация : Audio Coding 3
Расширение режима : CM (complete main)
Режим смешивания : DVD-Video
Продолжительность : 18 м.
Вид битрейта : Постоянный
Битрейт : 448 Кбит/сек
Канал(ы) : 6 канала(ов)
Расположение каналов : Front: L C R, Side: L R, LFE
Частота : 48,0 КГц
Битовая глубина : 16 бит
Метод сжатия : С потерями
Задержка видео : -736 мс.
Размер потока : 59,8 Мбайт (6%)
Аудио #5
Идентификатор : 189 (0xBD)-132 (0x84)
Формат : AC-3
Формат/Информация : Audio Coding 3
Расширение режима : CM (complete main)
Режим смешивания : DVD-Video
Продолжительность : 18 м.
Вид битрейта : Постоянный
Битрейт : 448 Кбит/сек
Канал(ы) : 6 канала(ов)
Расположение каналов : Front: L C R, Side: L R, LFE
Частота : 48,0 КГц
Битовая глубина : 16 бит
Метод сжатия : С потерями
Задержка видео : -736 мс.
Размер потока : 59,8 Мбайт (6%)
Текст #1
Идентификатор : 189 (0xBD)-32 (0x20)
Формат : RLE
Формат/Информация : Run-length encoding
Режим смешивания : DVD-Video
Продолжительность : 18 м.
Задержка видео : 320 мс.
Текст #2
Идентификатор : 189 (0xBD)-33 (0x21)
Формат : RLE
Формат/Информация : Run-length encoding
Режим смешивания : DVD-Video
Продолжительность : 18 м.
Задержка видео : 320 мс.
Текст #3
Идентификатор : 189 (0xBD)-35 (0x23)
Формат : RLE
Формат/Информация : Run-length encoding
Режим смешивания : DVD-Video
Продолжительность : 18 м.
Задержка видео : 400 мс.
Текст #4
Идентификатор : 189 (0xBD)-36 (0x24)
Формат : RLE
Формат/Информация : Run-length encoding
Режим смешивания : DVD-Video
Продолжительность : 18 м.
Задержка видео : 320 мс.
Текст #5
Идентификатор : 189 (0xBD)-37 (0x25)
Формат : RLE
Формат/Информация : Run-length encoding
Режим смешивания : DVD-Video
Продолжительность : 18 м.
Задержка видео : 320 мс.
Текст #6
Идентификатор : 189 (0xBD)-38 (0x26)
Формат : RLE
Формат/Информация : Run-length encoding
Режим смешивания : DVD-Video
Продолжительность : 18 м.
Задержка видео : 320 мс.
Меню

_________________

Создавая "Новую папку", не считайте себя Создателем - это право Вам дано Админом


Other forum [Profile] [PM]
Similar theme
Forum Topic Author Torrent Replies Last Post
./templates/default/images/folder_dl.gif Психология, Тренинг, Саморазвитие Андрей Парабеллум, Николай Мрочковский | Быстрые результаты. 10-дневная программа повышения личной эффективности (2012) [FB2, PDF, DOCX] moralis
1 | 0

0 | 849

1

2016-02-04 13:13
moralis Latest
./templates/default/images/folder_dl.gif Психология, Тренинг, Саморазвитие Даниэль Канеман | Думай медленно… Решай быстро (2013) [EPUB, FB2, MOBI] moralis
1 | 0

0 | 1176

8

2016-09-03 12:55
moralis Latest
./templates/default/images/folder_dl.gif Компьютерная литература Чарльз Спендер | Сделай свой компьютер стабильнее и быстрее: Что Майкрософт забыла вам сказать (2019) [FB2, RTF] }{@R0N
1 | 0

0 | 687

3

2019-03-13 18:30
}{@R0N Latest
./templates/default/images/folder_dl.gif Психология, Тренинг, Саморазвитие Константин Дудин | Память, как у слона. Как быстро прокачать свою память, даже если вы регулярно забываете выключить утюг или закрыть дверь (2019) [PDF] }{@R0N
1 | 0

0 | 964

0

2019-03-22 23:07
}{@R0N Latest
Display posts from previous:    
Reply to topic

The time now is: Today 08:24

All times are GMT + 3 Hours



You cannot post new topics in this forum
You cannot reply to topics in this forum
You cannot edit your posts in this forum
You cannot delete your posts in this forum
You cannot vote in polls in this forum
You cannot attach files in this forum
You cannot download files in this forum