Today is a free download without charge Download

Легенда о пианисте (полная версия)/ La leggenda del pianista sull'oceano (Джузеппе Торнаторе) [1998 г., фэнтези, драма, мелодрама, музыка, BDRip 720p]

Reply to topic
 
Author
Message

Delia ®

Gender:

Longevity: 11 years

Posts: 1821

Торрент-статистика

Post 23-Mar-2011 19:12

[Quote]

Легенда о пианистеLa leggenda del pianista sull'oceano Год выпуска: 1998
Страна: Италия
Жанр: фэнтези, драма, мелодрама, музыка
Продолжительность: 02:49:44
Перевод: Профессиональный (многоголосый, закадровый)(BBC Saint-Petersburg & LHS)
Режиссер: Джузеппе Торнаторе
Продюссер: Марко Хименц, Лаура Фаттори, Франческо Торнаторе
Сценарий: Алессандро Барикко, Джузеппе Торнаторе
Бюджет: $9 000 000
Премьера в мире: 28 октября 1998
В ролях: Тим Рот, Прюитт Тэйлор Винс, Мелани Тьерри, Билл Нанн, Кларенс Уильямс III, Питер Воэн, Ниал О’Брайэн, Габриэле Лавиа, Вернон Нерс, Альберто Васкес
Описание: Началось все с того, что в первый день 20-го столетия на пароходе «Вирджиния» в коробке из-под лимонов был найден младенец. Мальчик вырос и провел всю свою жизнь на громадном океанском лайнере, курсирующем между Америкой и Европой, ни разу не сойдя на берег.Загадочным образом научившись играть на рояле, Дэнни Будманн Т. Д. Лемон 1900-й стал настоящим виртуозом и развлекал публику, играя в ресторанном оркестре. С ним связаны потрясающие истории, а его жизнь превратилась в красивую легенду...
Качество: BDRip 720p( Blu-Ray Remux (1080p)
Формат: MKV
Видео кодек: H.264
Аудио кодек: AC3
Видео: English, 2789 Кбит/сек, 1280*544 (2,35:1), в 23,976 кадр/сек, AVC
Аудио: Russian, 448 Кбит/сек, 48,0 КГц, 16 бит, 6 канала(ов), AC-3
Аудио:English, 448 Кбит/сек, 48,0 КГц, 16 бит, 6 канала(ов), AC-3
Субтитры:Russian, English- VobSub

Media Info:

Общее
Уникальный идентификатор : 246596023745148053324011459593423234693 (0xB984AAA83F7C86409DF8C31B70F32685)
Полное имя : E:\торрент\La Leggenda del pianista sull'oceano( 1998)BDRip 720p .mkv
Формат : Matroska
Размер файла : 4,38 Гбайт
Продолжительность : 2 ч. 49 м.
Общий поток : 3691 Кбит/сек
Дата кодирования : UTC 2011-03-23 14:31:31
Программа кодирования : mkvmerge v4.6.0 ('Still Crazy After All These Years') built on Mar 10 2011 02:50:32
Библиотека кодирования : libebml v1.2.0 + libmatroska v1.1.0
Видео
Идентификатор : 1
Формат : AVC
Формат/Информация : Advanced Video Codec
Профиль формата : [email protected]
Параметр CABAC формата : Да
Параметр ReFrames формата : 12 кадры
Идентификатор кодека : V_MPEG4/ISO/AVC
Продолжительность : 2 ч. 49 м.
Битрейт : 2789 Кбит/сек
Ширина : 1280 пикс.
Высота : 544 пикс.
Соотношение сторон : 2,35:1
Частота кадров : 23,976 кадр/сек
Цветовое пространство : YUV
Подвыборка цветности : 4:2:0
Битовая глубина : 8 бит
Тип развёртки : Прогрессивная
Бит/(Пиксели*Кадры) : 0.167
Размер потока : 3,23 Гбайт (74%)
Заголовок : /*spam*/
Библиотека кодирования : x264 core 114 r1913 5fd3dce
Настройки программы : cabac=1 / ref=12 / deblock=1:-1:-1 / analyse=0x3:0x133 / me=umh / subme=7 / psy=1 / psy_rd=1.00:0.15 / mixed_ref=1 / me_range=32 / chroma_me=1 / trellis=2 / 8x8dct=1 / cqm=0 / deadzone=21,11 / fast_pskip=0 / chroma_qp_offset=-3 / threads=6 / sliced_threads=0 / nr=0 / decimate=1 / interlaced=0 / constrained_intra=0 / bframes=6 / b_pyramid=2 / b_adapt=1 / b_bias=0 / direct=1 / weightb=1 / open_gop=0 / weightp=2 / keyint=250 / keyint_min=24 / scenecut=40 / intra_refresh=0 / rc_lookahead=40 / rc=2pass / mbtree=1 / bitrate=2789 / ratetol=1.0 / qcomp=0.60 / qpmin=4 / qpmax=51 / qpstep=4 / cplxblur=20.0 / qblur=0.5 / ip_ratio=1.40 / aq=1:1.00
Язык : English
Аудио #1
Идентификатор : 2
Формат : AC-3
Формат/Информация : Audio Coding 3
Расширение режима : CM (complete main)
Идентификатор кодека : A_AC3
Продолжительность : 2 ч. 49 м.
Вид битрейта : Постоянный
Битрейт : 448 Кбит/сек
Канал(ы) : 6 канала(ов)
Расположение каналов : Front: L C R, Side: L R, LFE
Частота : 48,0 КГц
Битовая глубина : 16 бит
Метод сжатия : С потерями
Размер потока : 544 Мбайт (12%)
Язык : Russian
Аудио #2
Идентификатор : 3
Формат : AC-3
Формат/Информация : Audio Coding 3
Расширение режима : CM (complete main)
Идентификатор кодека : A_AC3
Продолжительность : 2 ч. 49 м.
Вид битрейта : Постоянный
Битрейт : 448 Кбит/сек
Канал(ы) : 6 канала(ов)
Расположение каналов : Front: L C R, Side: L R, LFE
Частота : 48,0 КГц
Битовая глубина : 16 бит
Метод сжатия : С потерями
Размер потока : 544 Мбайт (12%)
Язык : English
Текст #1
Идентификатор : 4
Формат : VobSub
Режим смешивания : zlib
Идентификатор кодека : S_VOBSUB
Идентификатор кодека/Информация : The same subtitle format used on DVDs
Язык : Russian
Текст #2
Идентификатор : 5
Формат : VobSub
Режим смешивания : zlib
Идентификатор кодека : S_VOBSUB
Идентификатор кодека/Информация : The same subtitle format used on DVDs
Язык : English
Меню
00:00:00.000 : en:00:00:00.000
00:10:47.897 : en:00:10:47.897
00:14:25.739 : en:00:14:25.739
00:16:17.393 : en:00:16:17.393
00:45:45.033 : en:00:45:45.033
01:13:41.834 : en:01:13:41.834
01:24:49.042 : en:01:24:49.042
01:49:14.839 : en:01:49:14.839
01:58:17.799 : en:01:58:17.799
02:14:01.616 : en:02:14:01.616
02:26:44.420 : en:02:26:44.420
02:40:58.690 : en:02:40:58.690

Скриншоты

        

_________________
Человек – это канат, натянутый между животным и сверхчеловеком, – канат над пропастью.
В человеке ценно то, что он мост, а не цель. Фридрих Ницше


Last edited by Delia on 2011-08-26 00:15; edited 3 times in total
Other forum [Profile] [PM]
Display posts from previous:    
Reply to topic

The time now is: Today 13:52

All times are GMT + 3 Hours



You cannot post new topics in this forum
You cannot reply to topics in this forum
You cannot edit your posts in this forum
You cannot delete your posts in this forum
You cannot vote in polls in this forum
You cannot attach files in this forum
You cannot download files in this forum