Today is a free download without charge Download

Поразительные тела / World's Greatest Body Shockers (2012) TVRip

Reply to topic
 
Author
Message

Koralina ®

Longevity: 10 years

Posts: 994

Location: Lithuania

Торрент-статистика

Post 17-Nov-2012 00:20

[Quote]

Поразительные тела / World's Greatest Body Shockers (2012) TVRip- Русское название: Поразительные тела
Оригинальное название: World's Greatest Body Shockers
Режиссер / Телекомпания: Джилл Камбербэтч
Год выпуска: 2012
Жанр: Документальный
Описание:
Ведущий Том Аллен довольно прямолинейно и жестко рассказывает о самых удивительных трансформациях человеческого тела. Вы узнаете необычные истории о людях, которые на поводу у моды и своих прихотей увеличивают бицепсы до разрыва мышечной ткани, о мужчине, которому удалось родить, и о радикальных нонконформистах, готовых татуировать, прокалывать и кромсать свое тело, чтобы стать «не такими как все». Это захватывающая передача с архивными кадрами, комментариями экспертов и выступлениями голливудских знаменитостей, готовых рассказать свои собственные истории кардинальных преображений.
Участники: Пол Гарнер, Том Аллен, Ирина Андерсон, Томас Бити
Продолжительность: 01:25:15
Перевод: Одноголосый закадровый, профессиональный
Видеокодек: Xvid
Битрейт видео: ~1772 Кбит/сек
Размер кадра: 704х400
Качество видео: TVRip
Аудиокодек: AC3
Битрейт аудио: 256 Кбит/сек

MediaInfo

Общее
Полное имя : H:\Фильмы\Porazitelnye.tela.2012.XviD.TVRip\Porazitelnye.tela.(seriya.1)2012.XviD.TVRip.avi
Формат : AVI
Формат/Информация : Audio Video Interleave
Размер файла : 620 Мбайт
Продолжительность : 42 м.
Общий поток : 2017 Кбит/сек
Программа кодирования : VirtualDubMod 1.5.4.1 (build 2178/release)
Библиотека кодирования : VirtualDubMod build 2178/release
Видео
Идентификатор : 0
Формат : MPEG-4 Visual
Профиль формата : Advanced [email protected]
Параметр BVOP формата : 1
Параметр QPel формата : Нет
Параметр GMC формата : Без точки перехода
Параметр матрицы формата : Выборочная
Идентификатор кодека : XVID
Идентификатор кодека/Подсказка : XviD
Продолжительность : 42 м.
Битрейт : 1754 Кбит/сек
Ширина : 704 пикселя
Высота : 400 пикселей
Соотношение сторон : 16:9
Частота кадров : 25,000 кадров/сек
Цветовое пространство : YUV
Субдискретизация насыщенности : 4:2:0
Битовая глубина : 8 бит
Тип развёртки : Прогрессивная
Метод сжатия : С потерями
Бит/(Пиксели*Кадры) : 0.249
Размер потока : 539 Мбайт (87%)
Библиотека кодирования : XviD 1.2.1 (UTC 2008-12-04)
Аудио
Идентификатор : 1
Формат : AC-3
Формат/Информация : Audio Coding 3
Расширение режима : CM (complete main)
Параметр Endianness формата : Big
Идентификатор кодека : 2000
Продолжительность : 42 м.
Вид битрейта : Постоянный
Битрейт : 256 Кбит/сек
Каналы : 2 канала
Расположение каналов : Front: L R
Частота : 48,0 КГц
Битовая глубина : 16 бит
Метод сжатия : С потерями
Размер потока : 78,7 Мбайт (13%)
Выравнивание : Разделение по промежуткам
Продолжительность промежутка : 96 мс. (2,40 видеокадра)
Время предзагрузки промежутка : 96 мс.
Общее
Полное имя : H:\Фильмы\Porazitelnye.tela.2012.XviD.TVRip\Porazitelnye.tela.(seriya.2)2012.XviD.TVRip.avi
Формат : AVI
Формат/Информация : Audio Video Interleave
Размер файла : 620 Мбайт
Продолжительность : 42 м.
Общий поток : 2052 Кбит/сек
Программа кодирования : VirtualDubMod 1.5.4.1 (build 2178/release)
Библиотека кодирования : VirtualDubMod build 2178/release
Видео
Идентификатор : 0
Формат : MPEG-4 Visual
Профиль формата : Advanced [email protected]
Параметр BVOP формата : 1
Параметр QPel формата : Нет
Параметр GMC формата : Без точки перехода
Параметр матрицы формата : Выборочная
Идентификатор кодека : XVID
Идентификатор кодека/Подсказка : XviD
Продолжительность : 42 м.
Битрейт : 1790 Кбит/сек
Ширина : 704 пикселя
Высота : 400 пикселей
Соотношение сторон : 16:9
Частота кадров : 25,000 кадров/сек
Цветовое пространство : YUV
Субдискретизация насыщенности : 4:2:0
Битовая глубина : 8 бит
Тип развёртки : Прогрессивная
Метод сжатия : С потерями
Бит/(Пиксели*Кадры) : 0.254
Размер потока : 541 Мбайт (87%)
Библиотека кодирования : XviD 1.2.1 (UTC 2008-12-04)
Аудио
Идентификатор : 1
Формат : AC-3
Формат/Информация : Audio Coding 3
Расширение режима : CM (complete main)
Параметр Endianness формата : Big
Идентификатор кодека : 2000
Продолжительность : 42 м.
Вид битрейта : Постоянный
Битрейт : 256 Кбит/сек
Каналы : 2 канала
Расположение каналов : Front: L R
Частота : 48,0 КГц
Битовая глубина : 16 бит
Метод сжатия : С потерями
Размер потока : 77,3 Мбайт (12%)
Выравнивание : Разделение по промежуткам
Продолжительность промежутка : 96 мс. (2,40 видеокадра)
Время предзагрузки промежутка : 96 мс.
Скриншоты:            

_________________
Other forum [Profile] [PM]

инокеннтий

Longevity: 10 years

Posts: 4

Торрент-статистика

Post 17-Nov-2012 11:20 (after 11 hours)

[Quote]

Koralina, спасибо огромное!!!
Other forum [Profile] [PM]
Display posts from previous:    
Reply to topic

The time now is: Today 08:43

All times are GMT + 3 Hours



You cannot post new topics in this forum
You cannot reply to topics in this forum
You cannot edit your posts in this forum
You cannot delete your posts in this forum
You cannot vote in polls in this forum
You cannot attach files in this forum
You cannot download files in this forum