Today is a free download without charge Download

Вероника. Потерянное счастье (Мирослав Малич) (16 серий из 16) [2012, Мелодрама, SATRip] (Первый канал) [] (2012) SATRip

Reply to topic
 
Author
Message

Meshanik ®

Gender:

Longevity: 9 years 4 months

Posts: 3866

Location: Los Angeles

Торрент-статистика

Post 16-Nov-2012 17:52

[Quote]

Вероника. Потерянное счастье- Русское название: Вероника. Потерянное счастье
Оригинальное название: Вероника. Потерянное счастье
Год выпуска: 2012
Страна: Россия
Жанр: Мелодрама
Продолжительность: 16 х ~ 00:43:14
Перевод: (Оригинал)
Субтитры: нет-Режиссёр: Мирослав Малич
В ролях: Наталья Бардо, Александр Дьяченко, Сергей Жигунов, Мария Машкова, Ольга Волкова, Владимир Носик, Виталий Альшанский, Анатолий Журавлев, Анатолий Лобоцкий, Митя Лабуш, Амаду Мамадаков, Ирина Ефремова...-Описание: Вероника Серова – дочь талантливого ученого и первая красавица небольшого провинциального городка Зеленогорска. Много лет девушка росла без печали и забот, соседские мальчишки наперебой сражались за ее внимание и любовь, и все прочили гордой красавице счастливое будущее. Но трагическое событие переворачивает судьбу Вероники. Внезапно она остается один на один с суровой взрослой жизнью. В паутине интриг, обмана и предательства ей придется научиться справляться с трудностями, переживать потери и бороться за себя и свою любовь…- -Качество: SATRip
Формат: AVI
Видео кодек: XviD
Аудио кодек: MP3
Видео: 720x400 (1.80:1), 25 fps, XviD build 64 ~1611 kbps avg, 0.22 bit/pixel
Аудио: 48 kHz, MPEG Layer 3, 2 ch, ~192.00 kbps avg
-

Внимание! Раздача ведётся путём добавления новых серий!

Внимание! Раздача ведётся путём добавления новых серий; при каждом добавлении создётся новый торрент. Чтобы начать докачку новой серии, пользователям необходимо сделать следующее:
1. остановить скачивание,
2. удалить старый торрент у себя из клиента (старые серии удалять не надо),
3. скачать новый торрент и запустить его у себя в клиенте вместо старого, при этом указать клиенту путь в старую папку куда и должно происходить скачивание новых серий.
Ваш клиент при этом должен произвести хеширование (проверку) старой папки (если не производит сам - помогите ему сделать это), и будет докачивать только те серии которых у вас ещё нет. Старые серии при этом не удаляются, а продолжают раздаваться!
Eсли вы уже удалили старые серии, то предотвратить повторную закачку старых серий можно, отжав галочку в соответсвующих местах при запуске нового торрента.

Знаете ли вы что...

Вероника Серова — дочь талантливого ученого и первая красавица небольшого провинциального городка Зеленогорска. Много лет девушка росла без печали и забот, соседские мальчишки наперебой сражались за ее внимание и любовь, и все прочили гордой красавице счастливое будущее. Но трагическое событие переворачивает судьбу Вероники. Внезапно она остается один на один с суровой взрослой жизнью. В паутине интриг, обмана и предательства ей придется научиться справляться с трудностями, переживать потери и бороться за себя и свою любовь…

MediaInfo

Код:
Общее
Полное имя : D:\Торренты\ФИЛЬМЫ торента\Вероника. Потерянное счастье.2012.SATRip\Вероника. Потерянное счастье.01.2012.SATRip.avi
Формат : AVI
Формат/Информация : Audio Video Interleave
Размер файла : 550 Мбайт
Продолжительность : 43 м.
Общий поток : 1775 Кбит/сек
Программа кодирования : VirtualDubMod 1.5.4.1 (build 2178/release)
Библиотека кодирования : VirtualDubMod build 2178/release
Видео
Идентификатор : 0
Формат : MPEG-4 Visual
Профиль формата : Advanced [email protected]
Параметр BVOP формата : 1
Параметр QPel формата : Нет
Параметр GMC формата : Без точки перехода
Параметр матрицы формата : Выборочная
Идентификатор кодека : XVID
Идентификатор кодека/Подсказка : XviD
Продолжительность : 43 м.
Битрейт : 1576 Кбит/сек
Ширина : 720 пикс.
Высота : 400 пикс.
Соотношение сторон : 16:9
Частота кадров : 25,000 кадр/сек
Цветовое пространство : YUV
Подвыборка цветности : 4:2:0
Битовая глубина : 8 бит
Тип развёртки : Прогрессивная
Метод сжатия : С потерями
Бит/(Пиксели*Кадры) : 0.219
Размер потока : 488 Мбайт (89%)
Библиотека кодирования : XviD 64
Аудио
Идентификатор : 1
Формат : MPEG Audio
Версия формата : Version 1
Профиль формата : Layer 3
Режим : Joint stereo
Расширение режима : MS Stereo
Идентификатор кодека : 55
Идентификатор кодека/Подсказка : MP3
Продолжительность : 43 м.
Вид битрейта : Постоянный
Битрейт : 192 Кбит/сек
Каналы : 2 канала
Частота : 48,0 КГц
Метод сжатия : С потерями
Размер потока : 59,5 Мбайт (11%)
Выравнивание : Соединение по промежуткам
Продолжительность промежутка : 80 мс. (2,00 видеокадра)
Время предзагрузки промежутка : 504 ms
Библиотека кодирования : LAME3.98r

Скриншоты

         
Other forum [Profile] [PM]
Display posts from previous:    
Reply to topic

The time now is: Today 12:26

All times are GMT + 3 Hours



You cannot post new topics in this forum
You cannot reply to topics in this forum
You cannot edit your posts in this forum
You cannot delete your posts in this forum
You cannot vote in polls in this forum
You cannot attach files in this forum
You cannot download files in this forum