Today is a free download without charge Download

Матрица / The Matrix (1999) BDRip [720p]

Reply to topic
 
Author
Message

Delia ®

Gender:

Longevity: 9 years 6 months

Posts: 1821

Торрент-статистика

Post 23-Mar-2011 15:22

[Quote]

МатрицаThe Matrix
Жанр: Фантастика, Боевик, Приключения.
Год: 1999.
Студия: Warner Bros. Pictures.
Страна: США, Австралия.
Перевод:
Русский дублированный
Английская дорожка (Отдельно)
Субтитры: Русские, Английские.
Режиссер: Энди Вачовски , Лана Вачовски
В ролях: Киану Ривз , Лоренс Фишбёрн , Кэрри-Энн Мосс , Хьюго Уивинг , Глория Фостер , Джо Пантольяно , Маркус Чонг , Джулиан Араханга, Мэтт Доран , Белинда МакКлори .
Описание: Мир Матрицы — это иллюзия, существующая только в бесконечном сне обречённого человечества. Холодный мир будущего, в котором люди — всего лишь батарейки в компьютерных системах...
Кодек: H.264
Качество: BDRip 720p
Видео: 5 108 kbps, 1280x532 (2.40:1) 23.976 fps~ 0.313 bit/pixel
Аудио:
Russian: AC3, 448 kbps, Dolby Digital 5.1, 48 kHz
English: AC3, 640 kbps, Dolby Digital 5.1, 48 kHz

MediaInfo

General
Complete name : Matritsa.1999.RUS.BDRip.720p.h264.AC3.-HQ-ViDEO.mkv
Format : Matroska
File size : 5.58 GiB
Duration : 2h 16mn
Overall bit rate : 5 865 Kbps
Movie name : The Matrix (1999)
Encoded date : UTC 2011-03-22 09:56:04
Writing application : mkvmerge v3.3.0 ('Language') built on Mar 24 2010 14:59:24
Writing library : libebml v0.8.0 + libmatroska v0.9.0
Video
ID : 1
Format : AVC
Format/Info : Advanced Video Codec
Format profile : [email protected]
Format settings, CABAC : Yes
Format settings, ReFrames : 6 frames
Codec ID : V_MPEG4/ISO/AVC
Duration : 2h 16mn
Bit rate mode : Variable
Bit rate : 5 108 Kbps
Width : 1 280 pixels
Height : 532 pixels
Display aspect ratio : 2.40:1
Frame rate : 2.40:1 fps
Color space : YUV
Chroma subsampling : 4:2:0
Bit depth : 8 bits
Scan type : Progressive
Bits/(Pixel*Frame) : 0.313
Stream size : 4.86 GiB (87%)
Title : Encoded by GYN
Audio
ID : 2
Format : AC-3
Format/Info : Audio Coding 3
Mode extension : CM (complete main)
Codec ID : A_AC3
Duration : 2h 16mn
Bit rate mode : Constant
Bit rate : 640 Kbps
Channel(s) : 6 channels
Channel positions : Front: L C R, Side: L R, LFE
Sampling rate : 48.0 KHz
Bit depth : 16 bits
Compression mode : Lossy
Stream size : 624 MiB (11%)
Title : DUB
Language : Russian
Text #1
ID : 3
Format : UTF-8
Codec ID : S_TEXT/UTF8
Codec ID/Info : UTF-8 Plain Text
Language : Russian
Text #2
ID : 4
Format : UTF-8
Codec ID : S_TEXT/UTF8
Codec ID/Info : UTF-8 Plain Text
Language : English

Скриншоты:

    

_________________
Человек – это канат, натянутый между животным и сверхчеловеком, – канат над пропастью.
В человеке ценно то, что он мост, а не цель. Фридрих Ницше


Last edited by Delia on 2011-03-24 10:04; edited 1 time in total
Other forum [Profile] [PM]

Haron

Gender:

Longevity: 8 years

Posts: 85

Нарушений: 1

Location: Москвэ

Торрент-статистика

Post 08-Apr-2014 07:11 (after 3 years)

[Quote]

Людям всё почти открытым текстом говорят: вы живете в МИРЕ, СОЗДАННОМ ДЛЯ ТОГО, ЧТОБЫ СКРЫТЬ ПРАВДУ.
Ты избранный но чего ждешь - у тебя есть Сила и воля. Но ты её не используешь. Чего-то ждешь.
Тот момент когда в белый фон загрузили Нео - тоже мини матрица. А значит матрицу может создать каждый. То есть матрица - в фильме - создана для людей рабов. И ее тоже кто то создал. Причем она существует не только пока с детства учат быть в ней но и пока людей УСТРАИВАЕТ данная матрица рабцтва.
Дальнейшие логические цепочки предлагаю строить самим.

_________________
Other forum [Profile] [PM]
Display posts from previous:    
Reply to topic

The time now is: Today 00:07

All times are GMT + 3 Hours



You cannot post new topics in this forum
You cannot reply to topics in this forum
You cannot edit your posts in this forum
You cannot delete your posts in this forum
You cannot vote in polls in this forum
You cannot attach files in this forum
You cannot download files in this forum