Today is a free download without charge Download

Брат за брата 2 (Олег Туранский, Олег Ларин) (1-7 серии из 24) [2012., Россия, Украина, Star Media, Драма, криминал SATRip] [Обновляемая]

Reply to topic
 
Author
Message

Meshanik ®

Gender:

Longevity: 9 years 5 months

Posts: 3866

Location: Los Angeles

Торрент-статистика

Post 13-Nov-2012 15:04

[Quote]

Брат за брата 2- Русское название: Брат за брата 2
Оригинальное название: Брат за брата 2
Год выпуска: 2012
Производство: Россия, Украина, Star Media
Жанр: Драма, криминал
Продолжительность: ~ 00:45:00 серия
Перевод: Оригинал
Субтитры: Нет-Режиссер: Олег Туранский, Олег Ларин
Сценарий: Андрей Тумаркин, Андрей Фадеев, Михаил Колодинский
Продюсер: Алексей Терентьев, Влад Ряшин
В ролях: Ярослав Бойко, Владимир Стеклов, Константин Стрельников, Егор Клейменов, Сергей Романюк (II), Максим Дрозд, Виталий Линецкий, Станислав Боклан, Дмитрий Суржиков, Александр Кобзарь, Денис Гранчак, Анна Казючиц, Игорь Петрусенко, Игорь Писный, Ольга Радчук, Лариса Руснак, Анна Саливанчук, Сергей Сипливый, Ольга Сторожук, Елена Турбал, Евгений Ефремов, Григорий Меликбекян, Михаил Полосухин, Кристина Ярошенко-Описание фильма:
Капитан полиции Игорь Светлов продолжает вести бескомпромиссную войну с разгулявшейся преступностью «Гарлема».
На стороне криминала — превосходящие силы, прочные связи с коррумпированной верхушкой власти, жестокость и хитрость.
В арсенале Светлова — непримиримость ко лжи и предательству, стремление отомстить любой ценой и, конечно, поддержка верных друзей.- -Качество видео: SATRip
Видеокодек: XviD
Битрейт видео: ~ 1457 Кбит/сек
Размер кадра: 704x384
Аудио: Русский, МР3, 2 ch, 128 Кбит/с
-

Внимание! Раздача ведётся путём добавления новых серий. Описание обновления торрента:

Внимание!
Раздача ведётся путём добавления новых серий; при каждом добавлении создётся новый торрент. Чтобы начать докачку новой серии, пользователям необходимо сделать следующее:
1. остановить скачивание,
2. удалить старый торрент у себя из клиента (старые серии удалять не надо),
3. скачать новый торрент и запустить его у себя в клиенте вместо старого, при этом указать клиенту путь в старую папку куда и должно происходить скачивание новых серий.
Ваш клиент при этом должен произвести хеширование (проверку) старой папки (если не производит сам - помогите ему сделать это), и будет докачивать только те серии которых у вас ещё нет. Старые серии при этом не удаляются, а продолжают раздаваться!
Eсли вы уже удалили старые серии, то предотвратить повторную закачку старых серий можно, отжав галочку в соответсвующих местах при запуске нового торрента. По возможности, желательно не удалять старые серии как можно дольше чтобы релизёр не столько продолжал раздавать старые серии, а смог сконцентрироваться на новых.

MediaInfo

Код:
Общее
Полное имя                               : E:\Раздачи\Раздачи Обновляемые\Брат за брата 2 (2012) SATRip [Обновляемая]\Brat_za_brata-2-01.avi
Формат                                   : AVI
Формат/Информация                        : Audio Video Interleave
Размер файла                             : 530 Мбайт
Продолжительность                        : 45 м.
Общий поток                              : 1613 Кбит/сек
Программа кодирования                    : VirtualDubMod 1.5.10.2 (build 2540/release)
Библиотека кодирования                   : VirtualDubMod build 2540/release
Видео
Идентификатор                            : 0
Формат                                   : MPEG-4 Visual
Профиль формата                          : Advanced [email protected]
Параметр BVOP формата                    : 2
Параметр QPel формата                    : Нет
Параметр GMC формата                     : Без точки перехода
Параметр матрицы формата                 : Default (H.263)
Режим смешивания                         : Сжатый битовый поток
Идентификатор кодека                     : XVID
Идентификатор кодека/Подсказка           : XviD
Продолжительность                        : 45 м.
Битрейт                                  : 1475 Кбит/сек
Ширина                                   : 704 пикселя
Высота                                   : 384 пикселя
Соотношение сторон                       : 1,85:1
Частота кадров                           : 25,000 кадров/сек
Цветовое пространство                    : YUV
Субдискретизация насыщенности            : 4:2:0
Битовая глубина                          : 8 бит
Тип развёртки                            : Прогрессивная
Метод сжатия                             : С потерями
Бит/(Пиксели*Кадры)                      : 0.218
Размер потока                            : 485 Мбайт (91%)
Библиотека кодирования                   : XviD 58
Аудио
Идентификатор                            : 1
Формат                                   : MPEG Audio
Версия формата                           : Version 1
Профиль формата                          : Layer 3
Режим                                    : Joint stereo
Расширение режима                        : MS Stereo
Идентификатор кодека                     : 55
Идентификатор кодека/Подсказка           : MP3
Продолжительность                        : 45 м.
Вид битрейта                             : Постоянный
Битрейт                                  : 128 Кбит/сек
Каналы                                   : 2 канала
Частота                                  : 48,0 КГц
Метод сжатия                             : С потерями
Размер потока                            : 42,1 Мбайт (8%)
Выравнивание                             : Соединение по промежуткам
Продолжительность промежутка             : 40  мс. (1,00 видеокадр)
Время предзагрузки промежутка            : 504  мс.

Скриншоты:

       
     
   
 
Other forum [Profile] [PM]
Display posts from previous:    
Reply to topic

The time now is: Today 15:09

All times are GMT + 3 Hours



You cannot post new topics in this forum
You cannot reply to topics in this forum
You cannot edit your posts in this forum
You cannot delete your posts in this forum
You cannot vote in polls in this forum
You cannot attach files in this forum
You cannot download files in this forum