Today is a free download without charge Download

16 желаний / 16 Wishes (Питер ДеЛуис) [2010, Фэнтези, Семейный, Комедия, 720p, BDRip]

Reply to topic
 
Author
Message

Meshanik ®

Gender:

Longevity: 8 years 10 months

Posts: 3866

Location: Los Angeles

Торрент-статистика

Post 13-Nov-2012 03:51

[Quote]

16 желаний / 16 Wishes- Русское название: 16 Желаний
Оригинальное название: 16 Wishes
Год выпуска: 2010
Жанр: Фэнтези, Семейный, Комедия
Продолжительность: 01:30:07
Перевод: Дублированный
Язык субтитров: Русские, aнглийские
Вид субтитров: Вшитые-Режиссер: Питер ДеЛуис
В ролях: Дебби Райан, Жан-Люк Билодо, Анна Мэй Рутледж, Карисса Тьюнс, Кендалл Кросс, Патрик Гилмор, Кайнан Виб, Кинэн Трэйси, Джесси Рейд-Описание фильма:
Эбби Дженсен планировала свое 16-летие с того момента как она была маленькой девочкой. Когда наступает этот день, она добавляет последнее (16-ое) желание в свой список желаний. К ее удивлению она получает коробку с 16-ю праздничными свечами, каждая из которых соответствует номеру ее желаний в списке. Как ее желания исполняются, ее день становится все лучше и лучше, пока она не загадает желание изменившее все и поможет себе понять что быть ребенком не так уж и плохо.- -Качество видео: BDRip
Видеокодек: MPEG-4 AVC/H.264
Битрейт видео: ~5436 Кбит/с
Размер кадра: 1280x720
Аудио 1: AC3, 2 ch, 192 Кбит/с [Русский]
Аудио 2: DTS, 6 ch, 1510 Кбит/с [Английский]
-

MediaInfo:

Полное имя : E:\Фильмы\16.zhelaniy.2010.x264.BDRip.720p.mkv
Формат : Matroska
Версия формата : Version 1
Размер файла : 4,50 Гбайт
Продолжительность : 1 ч. 30 м.
Общий поток : 7141 Кбит/сек
Название фильма : 16 желаний / 16 Wishes (2010) BDRip 720p от FireBit
Дата кодирования : UTC 2011-05-01 02:25:10
Программа кодирования : mkvmerge v2.3.0 ('Freak U') built on Sep 8 2008 18:32:16
Библиотека кодирования : libebml v0.7.7 + libmatroska v0.8.1
Видео
Идентификатор : 1
Формат : AVC
Формат/Информация : Advanced Video Codec
Профиль формата : [email protected]
Параметр CABAC формата : Да
Параметр ReFrames формата : 5 кадров
Идентификатор кодека : V_MPEG4/ISO/AVC
Продолжительность : 1 ч. 30 м.
Битрейт : 5436 Кбит/сек
Ширина : 1280 пикселей
Высота : 720 пикселей
Соотношение сторон : 16:9
Частота кадров : 23,976 кадра/сек
Цветовое пространство : YUV
Субдискретизация насыщенности : 4:2:0
Битовая глубина : 8 бит
Тип развёртки : Прогрессивная
Бит/(Пиксели*Кадры) : 0.246
Размер потока : 3,33 Гбайт (74%)
Заголовок :
Библиотека кодирования : x264 core 107 r1745 4785e8e
Настройки программы : cabac=1 / ref=5 / deblock=1:0:0 / analyse=0x3:0x133 / me=umh / subme=7 / psy=1 / psy_rd=1.00:0.00 / mixed_ref=1 / me_range=16 / chroma_me=1 / trellis=1 / 8x8dct=1 / cqm=0 / deadzone=21,11 / fast_pskip=0 / chroma_qp_offset=-2 / threads=12 / sliced_threads=0 / nr=0 / decimate=1 / interlaced=0 / constrained_intra=0 / bframes=3 / b_pyramid=2 / b_adapt=1 / b_bias=0 / direct=1 / weightb=1 / open_gop=0 / weightp=2 / keyint=250 / keyint_min=23 / scenecut=40 / intra_refresh=0 / rc_lookahead=40 / rc=2pass / mbtree=1 / bitrate=5436 / ratetol=1.0 / qcomp=0.60 / qpmin=10 / qpmax=51 / qpstep=4 / cplxblur=20.0 / qblur=0.5 / ip_ratio=1.40 / aq=1:1.00
Язык : English
Default : Да
Forced : Нет
Аудио #1
Идентификатор : 2
Формат : MPEG Audio
Версия формата : Version 1
Профиль формата : Layer 3
Режим : Joint stereo
Идентификатор кодека : A_MPEG/L3
Идентификатор кодека/Подсказка : MP3
Продолжительность : 1 ч. 30 м.
Вид битрейта : Постоянный
Битрейт : 192 Кбит/сек
Каналы : 2 канала
Частота : 48,0 КГц
Метод сжатия : С потерями
Размер потока : 124 Мбайт (3%)
Заголовок :
Язык : Russian
Default : Да
Forced : Нет
Аудио #2
Идентификатор : 3
Формат : DTS
Формат/Информация : Digital Theater Systems
Идентификатор кодека : A_DTS
Продолжительность : 1 ч. 30 м.
Вид битрейта : Постоянный
Битрейт : 1510 Кбит/сек
Каналы : 6 каналов
Расположение каналов : Front: L C R, Side: L R, LFE
Частота : 48,0 КГц
Битовая глубина : 24 бит
Метод сжатия : С потерями
Размер потока : 973 Мбайт (21%)
Заголовок :
Язык : English
Default : Нет
Forced : Нет
Текст #1
Идентификатор : 4
Формат : UTF-8
Идентификатор кодека : S_TEXT/UTF8
Идентификатор кодека/Информация : UTF-8 Plain Text
Заголовок :
Язык : English
Default : Да
Forced : Нет
Текст #2
Идентификатор : 5
Формат : UTF-8
Идентификатор кодека : S_TEXT/UTF8
Идентификатор кодека/Информация : UTF-8 Plain Text
Заголовок :
Язык : Russian
Default : Нет
Forced : Нет
Текст #3
Идентификатор : 6
Формат : UTF-8
Идентификатор кодека : S_TEXT/UTF8
Идентификатор кодека/Информация : UTF-8 Plain Text
Заголовок :
Язык : English
Default : Нет
Forced : Нет
Скриншоты:      
Other forum [Profile] [PM]
Display posts from previous:    
Reply to topic

The time now is: Today 05:40

All times are GMT + 3 Hours



You cannot post new topics in this forum
You cannot reply to topics in this forum
You cannot edit your posts in this forum
You cannot delete your posts in this forum
You cannot vote in polls in this forum
You cannot attach files in this forum
You cannot download files in this forum