Today is a free download without charge Download

Железный рыцарь / Ironclad (Джонатан Инглиш) [2011, США, Германия, Великобритания, боевик, приключения, DVD5]

Reply to topic
 
Author
Message

Meshanik ®

Gender:

Longevity: 8 years 10 months

Posts: 3866

Location: Los Angeles

Торрент-статистика

Post 12-Nov-2012 08:33

[Quote]

Железный рыцарь / Ironclad
И хлынет кровь
- Русское название: Железный рыцарь
Оригинальное название: Ironclad
Год выпуска: 2011
Производство: ContentFilm International / Mythic International Entertainment / Premiere Picture / Silver Reel [Великобритания, США, Германия]
Жанр: Боевик, приключения
Продолжительность: 01:55:49
Перевод: Дублированный
Субтитры: Вшитые отключаемые
Язык субтитров: Русский / Украинский-Дата мировой премьеры: 04 марта 2011
Дата российской премьеры: 24 марта 2011, «West»
Дата выхода DVD / Blu-Ray релиза: 16 августа 2011, «West Video»-Режиссер: Джонатан Инглиш
В ролях: Джеймс Пьюрфой, Пол Джаматти, Брайан Кокс, Кейт Мара, Чарльз Дэнс, Джейсон Флеминг, Анайрин Барнард, Бри Конден, Маккензи Крук, Джэми Формен и др.

В 13-ом веке группа рыцарей Тамплиеров защищает Рочестерский замок от тирании короля Ионна.- -Качество видео: DVD5
Видеокодек: MPEG-2
Размер кадра: [email protected] (PAL 16:9)
Битрейт видео: ~5100 kbps, Бит/(Пиксели*Кадры): 0.497
Аудио 1: AC3 5.1, 384 kbps [Русский]
Аудио 2: AC3 5.1, 384 kbps [Английский]
-

DVDInfo…

Title: Железный.Рыцарь-Ironclad.(2011).DVD5
Size: 4.36 Gb ( 4 575 196,00 KBytes ) - DVD-5
Enabled regions: 1, 2, 3, 4, 5, 6, 7, 8
VTS_01 :
Play Length: 00:00:00
Video: PAL 4:3 (720x576) VBR
VTS_02 :
Play Length: 01:55:49
Video: PAL 16:9 (720x576) VBR, Auto Pan&Scan, Auto Letterboxed
Audio:
Russian (Dolby AC3, 6 ch)
English (Dolby AC3, 6 ch)
Subtitles:
Russian
Ukrainian

MediaInfo…

Полное имя : G:\!my.torrent\Железный.Рыцарь-Ironclad.(2011).DVD5\VIDEO_TS\VTS_02_2.VOB
Формат : MPEG-PS
Размер файла : 1024 Мбайт
Продолжительность : 23 м.
Общий поток : 6045 Кбит/сек
Видео
Идентификатор : 224 (0xE0)
Формат : MPEG Video
Версия формата : Version 2
Профиль формата : [email protected]
Параметр BVOP формата : Да
Параметр матрицы формата : Выборочная
Продолжительность : 23 м.
Вид битрейта : Переменный
Битрейт : 5157 Кбит/сек
Максимальный битрейт : 8526 Кбит/сек
Ширина : 720 пикселей
Высота : 576 пикселей
Соотношение сторон : 16:9
Частота кадров : 25,000 кадров/сек
Стандарт вещания : PAL
Цветовое пространство : YUV
Субдискретизация насыщенности : 4:2:0
Битовая глубина : 8 бит
Тип развёртки : Чересстрочная
Порядок развёртки : Верхнее поле первое
Метод сжатия : С потерями
Бит/(Пиксели*Кадры) : 0.497
Размер потока : 873 Мбайт (85%)
Аудио #1
Идентификатор : 189 (0xBD)-128 (0x80)
Формат : AC-3
Формат/Информация : Audio Coding 3
Расширение режима : CM (complete main)
Режим смешивания : DVD-Video
Продолжительность : 23 м.
Вид битрейта : Постоянный
Битрейт : 384 Кбит/сек
Каналы : 6 каналов
Расположение каналов : Front: L C R, Side: L R, LFE
Частота : 48,0 КГц
Битовая глубина : 16 бит
Метод сжатия : С потерями
Задержка видео : -400 мс.
Размер потока : 65,0 Мбайт (6%)
Аудио #2
Идентификатор : 189 (0xBD)-129 (0x81)
Формат : AC-3
Формат/Информация : Audio Coding 3
Расширение режима : CM (complete main)
Режим смешивания : DVD-Video
Продолжительность : 23 м.
Вид битрейта : Постоянный
Битрейт : 384 Кбит/сек
Каналы : 6 каналов
Расположение каналов : Front: L C R, Side: L R, LFE
Частота : 48,0 КГц
Битовая глубина : 16 бит
Метод сжатия : С потерями
Задержка видео : -400 мс.
Размер потока : 65,0 Мбайт (6%)
Меню

Изготовление релиза:

Исходник взят тут: Железный рыцарь / Ironclad (Джонатан Инглиш) [2011, боевик, приключения DVD9]
Удалены: дополнительные материалы, предупреждения и заставки.
Видео сжато: финальные титры на 70%, сжатие самого фильма на 24%.
Меню: сделано статичным, недействующие кнопки удалены.
Дополнительные материалы: отсутствуют
Обработка и сжатие: DVD ReMake Pro + DVD Rebuilder + CCE SP2 1.00.01.09 [9 проходов] + Работа с меню (Adobe PhotoShop и MuxMan)

Скриншоты меню...

     
Скриншоты:
         
Other forum [Profile] [PM]
Similar theme
Forum Topic Author Torrent Replies Last Post
./templates/default/images/folder_dl.gif Техническая и научно-популярная литература А. Железный | Атлантида покоится на дне Чёрного моря [2008] [PDF] sashau
1 | 0

0 | 1066

0

2013-01-24 14:39
sashau Latest
./templates/default/images/folder_dl.gif Техническая и научно-популярная литература Ю.С. Железко | Потери электроэнергии. Реактивная мощность. Качество электроэнергии. Руководство для практических расчетов (2009) [DJVU] UndegraundMen
1 | 0

0 | 1273

9

2013-11-28 23:05
UndegraundMen Latest
./templates/default/images/folder_dl.gif Техническая и научно-популярная литература Владимир Михайлов | Стратегический "Молодец". История железнодорожных ракетных комплексов (2015) [PDF, DOC] Omen
1 | 0

0 | 386

0

2015-04-03 20:52
Omen Latest
Display posts from previous:    
Reply to topic

The time now is: Today 00:02

All times are GMT + 3 Hours



You cannot post new topics in this forum
You cannot reply to topics in this forum
You cannot edit your posts in this forum
You cannot delete your posts in this forum
You cannot vote in polls in this forum
You cannot attach files in this forum
You cannot download files in this forum