Today is a free download without charge Download

Пришельцы-завоеватели / Evil Aliens (Джэйк Уэст / Jake West)(2005, Великобритания, ужасы, фантастика, комедия ) [1080p] BDRip

Reply to topic
 
Author
Message

Koralina ®

Longevity: 9 years 7 months

Posts: 994

Location: Lithuania

Торрент-статистика

Post 10-Nov-2012 20:21

[Quote]

Пришельцы-завоеватели / Evil Aliens (2005) BDRip- Русское название: Пришельцы-завоеватели
Оригинальное название: Evil Aliens
Год выпуска: 2005
Страна: Великобритания
Жанр: Ужасы, фантастика, чёрная комедия
Описание фильма:
Группа дурковатых уфологов приезжает на удаленный валлийский остров, где обнаружен странный объект, и останавливается у семейки тупых и злобных деревенщин, которые ненавидят "городских" и даже их язык. А потом появляются злые (по-настоящему злые!) инопланетяне. Грубый юмор, секс и запредельное насилие с водопадами бутафорской кровищи и горами мокрых кишок. Начинается кино с того, что элиены сверлят мужику задний проход. И при всем этом "Evil Aliens" обладают и вменяемым набором спецэффектных сцен, и пародийной канвой.
В Evil aliens все напоено несколько непристойным, безудержным, не знающим меры драйвом. Все в этом фильме дико, но именно это и радует. Неудивительно, что, набрав название в поисковике, первое, с чем вы столкнетесь, — это сцена с комбайном. Сцена с комбайном, в которой озлобленная деревенщина садится внутрь машины, включая "мотивационную музыку фермера" и начиная истерически ЖАТЬ пришельцев, разрывая их в клочки, действительно стоит внимания. В общем-то, можно было даже не снимать все остальное, хотя и оно заслуживает взгляда, и оставить только сцену с комбайном, въезжая в незамысловатую трэш-вечность залитым кишками элиенов.

Режиссер: Джэйк Уэст
Актеры: Эмили Бут, Джэми Ханниборн, Сэм Батлер, Джоди Шоу, Питер О`Коннор, Ник Смитерс, Норман Ловетт, Кристофер Адамсон, Дженнифер Эванс, Марк Ричард Хэйес
Продолжительность: 01:33:06
Перевод:
• Любительский (двухголосый закадровый)
• Одноголосый закадровый (Zamez)

Язык субтитров: Русский, английский
Вид субтитров: Вшитые отключаемые- -Видеокодек: MPEG-4 AVC/H.264
Битрейт видео: ~11,9 Мбит/сек
Размер кадра: 1920x1080
Качество видео: BDRip 1080p
Формат: MKV
Аудиокодек: DTS , AC3
Аудио #1: Русский ( AC3 / 2.0 / 48 kHz / 192 kbps ) - Любительский (двухголосый закадровый)
Аудио #2: Русский ( AC3 / 2.0 / 48 kHz / 192 kbps ) - Одноголосый закадровый (Zamez)
Аудио #3: Английский ( DTS / 5.1 / 48 kHz / 1536 kbps )-

MediaInfo

Общее
Уникальный идентификатор : 206119168106326089414972239612262002262 (0x9B111B9892774CCCAD28792CE4C8AE56)
Полное имя : E:\Интернет-загрузки\Готовые торренты\Evil Aliens.mkv
Формат : Matroska
Версия формата : Version 2
Размер файла : 9,00 Гбайт
Продолжительность : 1 ч. 33 м.
Общий поток : 13,8 Мбит/сек
Дата кодирования : UTC 2012-11-04 17:48:24
Программа кодирования : mkvmerge v5.6.0 ('Kenya Kane') built on May 27 2012 16:44:04
Библиотека кодирования : libebml v1.2.3 + libmatroska v1.3.0
Видео
Идентификатор : 1
Формат : AVC
Формат/Информация : Advanced Video Codec
Профиль формата : [url=mailto:[email protected]][email protected][/url]
Параметр CABAC формата : Да
Параметр ReFrames формата : 4 кадра
Идентификатор кодека : V_MPEG4/ISO/AVC
Продолжительность : 1 ч. 33 м.
Битрейт : 11,9 Мбит/сек
Ширина : 1920 пикселей
Высота : 1080 пикселей
Соотношение сторон : 16:9
Режим частоты кадров : Постоянный
Частота кадров : 23,976 кадра/сек
Цветовое пространство : YUV
Субдискретизация насыщенности : 4:2:0
Битовая глубина : 8 бит
Тип развёртки : Прогрессивная
Бит/(Пиксели*Кадры) : 0.240
Размер потока : 7,58 Гбайт (84%)
Заголовок : Evil.Aliens.2005.BluRay.1080p.x264.DTS-MySiLU
Библиотека кодирования : x264 core 105 r1732 2b04482
Настройки программы : cabac=1 / ref=4 / deblock=1:-2:-2 / analyse=0x3:0x113 / me=umh / subme=9 / psy=1 / psy_rd=1.20:0.20 / mixed_ref=1 / me_range=32 / chroma_me=1 / trellis=1 / 8x8dct=1 / cqm=0 / deadzone=21,11 / fast_pskip=0 / chroma_qp_offset=-3 / threads=12 / sliced_threads=0 / nr=0 / decimate=0 / interlaced=0 / constrained_intra=0 / bframes=5 / b_pyramid=2 / b_adapt=2 / b_bias=0 / direct=3 / weightb=1 / open_gop=0 / weightp=2 / keyint=250 / keyint_min=2 / scenecut=40 / intra_refresh=0 / rc_lookahead=72 / rc=2pass / mbtree=1 / bitrate=11944 / ratetol=1.0 / qcomp=0.60 / qpmin=10 / qpmax=51 / qpstep=4 / cplxblur=20.0 / qblur=0.5 / vbv_maxrate=38000 / vbv_bufsize=38000 / ip_ratio=1.40 / aq=1:1.00 / nal_hrd=none
Язык : English
Default : Нет
Forced : Нет
Аудио #1
Идентификатор : 2
Формат : AC-3
Формат/Информация : Audio Coding 3
Расширение режима : CM (complete main)
Параметр Endianness формата : Big
Идентификатор кодека : A_AC3
Продолжительность : 1 ч. 33 м.
Вид битрейта : Постоянный
Битрейт : 192 Кбит/сек
Каналы : 2 канала
Расположение каналов : Front: L R
Частота : 48,0 КГц
Битовая глубина : 16 бит
Метод сжатия : С потерями
Размер потока : 128 Мбайт (1%)
Заголовок : DVO AC3 192 kBit/s 48 kHz 2.0 DD
Язык : Russian
Default : Нет
Forced : Нет
Аудио #2
Идентификатор : 3
Формат : AC-3
Формат/Информация : Audio Coding 3
Расширение режима : CM (complete main)
Параметр Endianness формата : Big
Идентификатор кодека : A_AC3
Продолжительность : 1 ч. 33 м.
Вид битрейта : Постоянный
Битрейт : 192 Кбит/сек
Каналы : 2 канала
Расположение каналов : Front: L R
Частота : 48,0 КГц
Битовая глубина : 16 бит
Метод сжатия : С потерями
Размер потока : 128 Мбайт (1%)
Заголовок : AC3 2.0 192Kbps @ Любительский одноголосый (Zamez)
Язык : Russian
Default : Нет
Forced : Нет
Аудио #3
Идентификатор : 4
Формат : DTS
Формат/Информация : Digital Theater Systems
Идентификатор кодека : A_DTS
Продолжительность : 1 ч. 33 м.
Вид битрейта : Постоянный
Битрейт : 1510 Кбит/сек
Каналы : 6 каналов
Расположение каналов : Front: L C R, Side: L R, LFE
Частота : 48,0 КГц
Битовая глубина : 24 бит
Метод сжатия : С потерями
Размер потока : 1007 Мбайт (11%)
Заголовок : English DTS 5.1 1536kb/s 48 kHz
Язык : English
Default : Нет
Forced : Нет
Текст #1
Идентификатор : 5
Формат : UTF-8
Идентификатор кодека : S_TEXT/UTF8
Идентификатор кодека/Информация : UTF-8 Plain Text
Язык : Russian
Default : Нет
Forced : Нет
Текст #2
Идентификатор : 6
Формат : UTF-8
Идентификатор кодека : S_TEXT/UTF8
Идентификатор кодека/Информация : UTF-8 Plain Text
Язык : English
Default : Нет
Forced : Нет
-Скриншоты:
         

_________________
Other forum [Profile] [PM]
Display posts from previous:    
Reply to topic

The time now is: Today 01:59

All times are GMT + 3 Hours



You cannot post new topics in this forum
You cannot reply to topics in this forum
You cannot edit your posts in this forum
You cannot delete your posts in this forum
You cannot vote in polls in this forum
You cannot attach files in this forum
You cannot download files in this forum