Today is a free download without charge Download

Ковбойши и ангелы / Cowgirls n' Angels (Тим Армстронг / Tim Armstrong) [2012, США, семейный] HDRip

Reply to topic
 
Author
Message

Koralina ®

Longevity: 9 years 9 months

Posts: 994

Location: Lithuania

Торрент-статистика

Post 10-Nov-2012 18:26

[Quote]

Ковбойши и ангелы / Cowgirls n' Angels (2012) HDRip- Русское название: Ковбойши и ангелы
Оригинальное название: Cowgirls n' Angels
Год выпуска: 2012
Производство: США / Sense and Sensibility Ventures
Жанр: Семейный
Перевод: Многоголосый закадровый, профессиональный
Дата мировой премьеры: 14 апреля 2012, ...
Режиссер: Тим Армстронг
Актеры: Джеймс Кромуэлл, Бэйли Мэдисон, Джексон Рэтбоун, Алисия Уитт, Эндрю Сенсениг, Фрэнки Фэйзон, Кэтлин Роуз Перкинс, Мэдисон Бёрдж, Луанна Стефенс
Описание фильма:
Лента рассказывает историю Иды, смелой и упрямой молодой девушки, которая грезит найти своего отца, участника родео. И пока она находится в его поисках, то знакомится с Поклонницами Родео, группой молодых женщин-участниц родео под руководством Теренси Паркера. С врожденным талантом Иды держаться в седле, Теренс берет ее в ряды своих новобранцев. Искренне принятая своей новой «семьей», Ида находит свое призвание, которое предопределяет ее судьбу, и, конечно, это помогает ей найти своего отца, которого она так искала».

Продолжительность: 01:31:27
Качество видео: HDRip
Видеокодек: Xvid
Битрейт видео: ~1749 Кбит/сек
Размер кадра: 720 х 384
Аудиокодек: AC3 5.1
Битрейт аудио: 384 Кбит/сек

MediaInfo:

Общее
Полное имя : F:Kovbojshi.i.angely.2012.P.HDRip.avi
Формат : AVI
Формат/Информация : Audio Video Interleave
Размер файла : 1,37 Гбайт
Продолжительность : 1 ч. 31 м.
Общий поток : 2142 Кбит/сек
Название фильма : Kovbojshi.i.angely.2012.P.HDRip
Жанр : Family
Программа кодирования : VirtualDubMod 1.5.10.2 (build 2540/release)
Формат оригинала/Имя : Movie
Видео
Идентификатор : 0
Формат : MPEG-4 Visual
Профиль формата : Advanced [email protected]
Параметр BVOP формата : 2
Параметр QPel формата : Нет
Параметр GMC формата : Без точки перехода
Параметр матрицы формата : Выборочная
Идентификатор кодека : XVID
Идентификатор кодека/Подсказка : XviD
Продолжительность : 1 ч. 31 м.
Битрейт : 1749 Кбит/сек
Ширина : 720 пикс.
Высота : 384 пикс.
Соотношение сторон : 1,875
Частота кадров : 23,976 кадр/сек
Цветовое пространство : YUV
Подвыборка цветности : 4:2:0
Битовая глубина : 8 бит
Тип развёртки : Прогрессивная
Метод сжатия : С потерями
Бит/(Пиксели*Кадры) : 0.264
Размер потока : 1,12 Гбайт (82%)
Библиотека кодирования : XviD 1.2.1 (UTC 2008-12-04)
Аудио
Идентификатор : 1
Формат : AC-3
Формат/Информация : Audio Coding 3
Расширение режима : CM (complete main)
Идентификатор кодека : 2000
Продолжительность : 1 ч. 31 м.
Вид битрейта : Постоянный
Битрейт : 384 Кбит/сек
Каналы : 6 каналов
Расположение каналов : Front: L C R, Side: L R, LFE
Частота : 48,0 КГц
Битовая глубина : 16 бит
Метод сжатия : С потерями
Размер потока : 251 Мбайт (18%)
Выравнивание : Разделение по промежуткам
Продолжительность промежутка : 42 мс. (1,00 видеокадр)
Время предзагрузки промежутка : 500 ms
Скриншоты:          

_________________
Other forum [Profile] [PM]
Display posts from previous:    
Reply to topic

The time now is: Today 04:39

All times are GMT + 3 Hours



You cannot post new topics in this forum
You cannot reply to topics in this forum
You cannot edit your posts in this forum
You cannot delete your posts in this forum
You cannot vote in polls in this forum
You cannot attach files in this forum
You cannot download files in this forum