Today is a free download without charge Download

Оборотень / Werewolf: The Beast Among Us (Луи Морно) [2012, Ужасы, Триллер, DVD9]

Reply to topic
 
Author
Message

Meshanik ®

Gender:

Longevity: 8 years 10 months

Posts: 3866

Location: Los Angeles

Торрент-статистика

Post 10-Nov-2012 04:21

[Quote]

Оборотень / Werewolf: The Beast Among Us- Русское название: Оборотень
Оригинальное название: Werewolf: The Beast Among Us
Год выпуска: 2012
Производство: США, Universal 1440 Entertainment
Жанр: Ужасы, Триллер
Продолжительность: 01:33:26
Перевод: Двуголосый закадровый, любительский (den904 и DeadSno)
Субтитры: Вшитые отключаемые
Язык субтитров: русский, испанский-Дата мировой премьеры: 9 октября 2012, ...
Дата выхода DVD релиза: 13 декабря 2012, «Двадцатый Век Фокс СНГ», ...-Режиссер: Луи Морно
В ролях: Стивен Бауэр, Эд Куинн, Ниа Пиплз, Стивен Ри, Золтан Бутуч, Рэйчел ДиПилло, Ана Улару, Адам Кроусделл, Гай Уилсон, Разван Георгиу-Описание фильма:
Действие фильма разворачивается в небольшой деревушке девятнадцатого века. Молодой человек, изучающий врачебное дело под руководством местного доктора, решает вступить в ряды охотников за оборотнями, когда жители деревни начинают гибнуть один за другим от лап неведомого зверя. Кто он, этот монстр? Один из жителей деревни или нечто совершенно неведомое? Человек днем, чудовище ночью.- -Качество видео: DVD9
Видеокодек: MPEG-2
Битрейт видео: ~6058 Кбит/сек
Размер кадра: 720 х [email protected] х 480
Аудио 1: AC3 5.1, 448 Кбит/сек, Русский
Аудио 2: AC3 2.0, 192 Кбит/сек, Английский
-

MediaInfo:

Общее
Полное имя : F:\Оборотень.2012.DVD-9\VIDEO_TS\VTS_04_2.VOB
Формат : MPEG-PS
Размер файла : 1024 Мбайт
Продолжительность : 20 м.
Общий поток : 6834 Кбит/сек
Видео
Идентификатор : 224 (0xE0)
Формат : MPEG Video
Версия формата : Version 2
Профиль формата : [email protected]
Параметр BVOP формата : Да
Параметр матрицы формата : По умолчанию
Продолжительность : 20 м.
Вид битрейта : Переменный
Битрейт : 6058 Кбит/сек
Номинальный битрейт : 8375 Кбит/сек
Ширина : 720 пикс.
Высота : 480 пикс.
Соотношение сторон : 16:9
Частота кадров : 23,976 кадр/сек
Стандарт вещания : NTSC
Цветовое пространство : YUV
Подвыборка цветности : 4:2:0
Битовая глубина : 8 бит
Тип развёртки : Прогрессивная
Порядок развёртки : 2:3 Pulldown
Метод сжатия : С потерями
Бит/(Пиксели*Кадры) : 0.731
Размер потока : 907 Мбайт (89%)
Аудио #1
Идентификатор : 189 (0xBD)-128 (0x80)
Формат : AC-3
Формат/Информация : Audio Coding 3
Расширение режима : CM (complete main)
Режим смешивания : DVD-Video
Продолжительность : 20 м.
Вид битрейта : Постоянный
Битрейт : 448 Кбит/сек
Каналы : 6 каналов
Расположение каналов : Front: L C R, Side: L R, LFE
Частота : 48,0 КГц
Битовая глубина : 16 бит
Метод сжатия : С потерями
Задержка видео : -725 мс.
Размер потока : 67,1 Мбайт (7%)
Аудио #2
Идентификатор : 189 (0xBD)-129 (0x81)
Формат : AC-3
Формат/Информация : Audio Coding 3
Расширение режима : CM (complete main)
Режим смешивания : DVD-Video
Продолжительность : 20 м.
Вид битрейта : Постоянный
Битрейт : 192 Кбит/сек
Каналы : 2 канала
Расположение каналов : Front: L R
Частота : 48,0 КГц
Битовая глубина : 16 бит
Метод сжатия : С потерями
Задержка видео : -629 мс.
Размер потока : 28,8 Мбайт (3%)
Меню

DVDInfo:

Title: Оборотень.2012.DVD-9
Size: 4.43 Gb ( 4 646 222,00 KBytes ) - DVD-9
Enabled regions: 1, 2, 3, 4, 5, 6, 7, 8
VTS_01 :
Play Length: 00:00:00
Video: NTSC 16:9 (720x480) VBR, Auto Pan&Scan
Audio:
Not specified (Dolby AC3, 2 ch)
Not specified (Dolby AC3, 2 ch)
Not specified (Dolby AC3, 2 ch)
Not specified (Dolby AC3, 2 ch)
Not specified (Dolby AC3, 2 ch)
Not specified (Dolby AC3, 2 ch)
Not specified (Dolby AC3, 2 ch)
Not specified (Dolby AC3, 2 ch)
Subtitles:
Not specified
Not specified
Not specified
Not specified
Not specified
Not specified
Not specified
Not specified
Not specified
Not specified
Not specified
Not specified
Not specified
Not specified
Not specified
Not specified
VTS_02 :
Play Length: 00:00:03
Video: NTSC 16:9 (720x480) VBR, Auto Letterboxed
VTS_03 :
Play Length: 00:00:01
Video: NTSC 16:9 (720x480) VBR, Auto Letterboxed
VTS_04 :
Play Length: 00:00:13+01:33:26
Video: NTSC 16:9 (720x480) VBR, Auto Letterboxed
Audio:
Russian (Dolby AC3, 6 ch)
English (Dolby AC3, 2 ch)
Subtitles:
English
Espanol
VTS_05 :
Play Length: 00:00:01+{00:00:01}+{00:00:04}
Video: NTSC 16:9 (720x480) VBR, Auto Letterboxed
VTS_06 :
Play Length: 00:00:01+{00:00:01}+{00:00:01}+{00:00:01}+{00:00:01}+{00:00:01}+{00:00:01}+{00:00:01}+{00:00:04}
Video: NTSC 16:9 (720x480) VBR, Auto Letterboxed
VTS_07 :
Play Length: 00:00:01
Video: NTSC 16:9 (720x480) VBR, Auto Letterboxed
* Menus Information *
VIDEO_TS Menu
Video:
NTSC 16:9 (720x480) VBR
Auto Pan&Scan
English Language Unit :
Title Menu
VTS_01 Menu
Video:
NTSC 4:3 (720x480) VBR
Auto Pan&Scan, Auto Letterboxed
English Language Unit :
Root Menu
VTS_02 Menu
Video:
NTSC 4:3 (720x480) VBR
Auto Pan&Scan, Auto Letterboxed
English Language Unit :
Root Menu
VTS_03 Menu
Video:
NTSC 4:3 (720x480) VBR
English Language Unit :
Root Menu
VTS_04 Menu
Video:
NTSC 16:9 (720x480) VBR
Auto Letterboxed
Audio:
Not specified (Dolby AC3, 2 ch)
English Language Unit :
Root Menu
Subpicture Menu
Audio Menu
Angle menu
Chapter (PTT) Menu
VTS_05 Menu
Video:
NTSC 4:3 (720x480) VBR
Auto Pan&Scan, Auto Letterboxed
English Language Unit :
Root Menu
VTS_06 Menu
Video:
NTSC 4:3 (720x480) VBR
English Language Unit :
Root Menu
VTS_07 Menu
Video:
NTSC 4:3 (720x480) VBR
Auto Pan&Scan, Auto Letterboxed
English Language Unit :
Root Menu

Дополнительная информация:

Дополнительные материалы: отсутствуют
Меню: на английском языке

Скриншоты меню:

     

Скриншоты:

                   
Other forum [Profile] [PM]

Dracula

Longevity: 7 years 6 months

Posts: 11224

Торрент-статистика

Post 12-Nov-2012 15:56 (after 2 days 11 hours)

Топик был перенесен из форума Фильмы 2012 (новинки) в форум Новинки (DVD, HD Video)


Delia
 
Similar theme
Forum Topic Author Torrent Replies Last Post
./templates/default/images/folder_dl.gif Фантастика, фэнтези, ужасы, мистика Светлана Кузнецова | Метро 2033: Уроборос (2018) [FB2] }{@R0N
1 | 0

0 | 443

0

2018-12-27 21:59
}{@R0N Latest
Display posts from previous:    
Reply to topic

The time now is: Today 01:29

All times are GMT + 3 Hours



You cannot post new topics in this forum
You cannot reply to topics in this forum
You cannot edit your posts in this forum
You cannot delete your posts in this forum
You cannot vote in polls in this forum
You cannot attach files in this forum
You cannot download files in this forum