Today is a free download without charge Download

Карпов. Пятницкий. Послесловие (Алексей Соколов) [2012, Документальный, SATRip]

Reply to topic
 
Author
Message

Meshanik ®

Gender:

Longevity: 9 years 5 months

Posts: 3866

Location: Los Angeles

Торрент-статистика

Post 09-Nov-2012 23:59

[Quote]

Карпов. Пятницкий. Послесловие- -Год выпуска: Эфир 9.11.2012
Страна: Россия / НТВ
Жанр: Документальный
Продолжительность: 00:43:02
Перевод: Не требуется-Режиссер: Алексей Соколов-В ролях: Владислав Котлярский, Степан Рожнов, Виктория Тарасова.-Описание:Оборвавшийся на самой драматической ноте "Карпов" и последовавшая за ним вторая глава "Пятницкого" вызвали у российских телезрителей огромный интерес. И раз уж сюжетные линии этих сериалов, посвященных самым популярным персонажам легендарного "Глухаря", пересекаются, - на НТВ решили представить поклонникам этой "сериальной вселенной" документальное послесловие сразу к обоим завершившимся сезонам - первому "Карпова" и второму "Пятницкого". В эфире НТВ - "фильм о фильме", точнее, сразу о двух фильмах. Обычно материалы такого рода выпускаются на коллекционных изданиях видео. В "Послесловии" преданные фанаты Стаса Карпова и команды ОВД "Пятницкий" впервые смогут увидеть: пробы на главные роли, неудавшиеся дубли и актерские розыгрыши на съемочной площадке. Посмотреть на своих любимых героев в непривычных амплуа, например, в театре и дома. Узнать, как были поставлены сложные трюки, перестрелки и взрывы, как работают каскадеры, дублеры и гримеры.-А самое главное, в "Послесловии" впервые будут раскрыты подробности продолжений "Карпова" и "Пятницкого", которые выйдут в эфир уже в следующем году.-Качество: SATRip
Формат: AVI
Видео кодек: XviD
Аудио кодек: MP3
Видео: 704x400, 25 fps, 1643 kbit/s
Аудио: 48000 Hz, 128 kbit/s, stereo
-

MediaInfo

Код:
General
Complete name                            : Karpov.Pyatnetskiy.Posleslovie.2012.XviD_SATRip.avi
Format                                   : AVI
Format/Info                              : Audio Video Interleave
File size                                : 558 MiB
Duration                                 : 43mn 49s
Overall bit rate                         : 1 781 Kbps
Writing library                          : VirtualDub build 24442/release
Video
ID                                       : 0
Format                                   : MPEG-4 Visual
Format profile                           : Advanced [email protected]
Format settings, BVOP                    : 2
Format settings, QPel                    : No
Format settings, GMC                     : No warppoints
Format settings, Matrix                  : Default (H.263)
Muxing mode                              : Packed bitstream
Codec ID                                 : XVID
Codec ID/Hint                            : XviD
Duration                                 : 43mn 49s
Bit rate                                 : 1 643 Kbps
Width                                    : 704 pixels
Height                                   : 400 pixels
Display aspect ratio                     : 16:9
Frame rate                               : 25.000 fps
Color space                              : YUV
Chroma subsampling                       : 4:2:0
Bit depth                                : 8 bits
Scan type                                : Progressive
Compression mode                         : Lossy
Bits/(Pixel*Frame)                       : 0.233
Stream size                              : 515 MiB (92%)
Writing library                          : XviD 64
Audio
ID                                       : 1
Format                                   : MPEG Audio
Format version                           : Version 1
Format profile                           : Layer 3
Mode                                     : Joint stereo
Mode extension                           : MS Stereo
Codec ID                                 : 55
Codec ID/Hint                            : MP3
Duration                                 : 43mn 48s
Bit rate mode                            : Constant
Bit rate                                 : 128 Kbps
Channel(s)                               : 2 channels
Sampling rate                            : 48.0 KHz
Compression mode                         : Lossy
Delay relative to video                  : 8ms
Stream size                              : 40.1 MiB (7%)
Alignment                                : Split accross interleaves
Interleave, duration                     : 40 ms (1.00 video frame)
Interleave, preload duration             : 500 ms

Скриншоты

     


Last edited by Meshanik on 2012-11-10 00:06; edited 2 times in total
Other forum [Profile] [PM]
Display posts from previous:    
Reply to topic

The time now is: Today 21:34

All times are GMT + 3 Hours



You cannot post new topics in this forum
You cannot reply to topics in this forum
You cannot edit your posts in this forum
You cannot delete your posts in this forum
You cannot vote in polls in this forum
You cannot attach files in this forum
You cannot download files in this forum