Today is a free download without charge Download

Три метра над уровнем неба: Я тебя хочу / Tengo ganas de ti (Фернандо Гонзалез Молина) [2012 г., Драма, мелодрама, DVD9]

Reply to topic
 
Author
Message

Meshanik ®

Gender:

Longevity: 8 years 10 months

Posts: 3866

Location: Los Angeles

Торрент-статистика

Post 09-Nov-2012 23:33

[Quote]

Три метра над уровнем неба: Я тебя хочу / Tengo ganas de ti- Русское название: Три метра над уровнем неба: Я тебя хочу
Оригинальное название: Tengo ganas de ti
Год выпуска: 2012
Производство: Antena 3 Films / Zeta Audiovisual [Испания]
Жанр: Драма, мелодрама
Продолжительность: 01:58:30
Перевод: Дублированный [лицензия]
Субтитры: Вшитые отключаемые
Язык субтитров: Русский
Режиссер: Фернандо Гонзалез Молина
Продюсер: Мерседес Гамеро, Джозеп Аморос, Хуан Карлос Каро
В ролях: Марио Касас, Мария Вальверде, Клара Лаго, Андреа Дуро, Диего Мартин, Альваро Сервантес, Марина Салас, Луис Фернандез, Нереа Камачо, Ману Фульола
Описание фильма:
Проведя два года в Лондоне, Аче возвращается домой, чтобы начать новую жизнь: устроиться на работу, завести новых друзей. Однако многое изменилось и встреча с Джин заставляет Аче почувствовать то, что он чувствовал только к Баби — своей первой большой и настоящей любви…
Дата мировой премьеры: 22 июня 2012
Дата российской премьеры: 5 июля 2012, «Каравелла DDC»
Дата выхода DVD / Blu-Ray релиза: 5 сентября 2012, «Кармен Видео», «ВС трейд»

Качество видео: DVD9
Видео: MPEG-2, [email protected] (PAL 16:9), ~5300 kbps, Bit/Pixel: 0.518
Аудио 1: AC3 5.1, 384 kbps [Русский - дублированный]
Аудио 2: AC3 2.0, 192 kbps [Русский - дублированный]

Дополнительные материалы...

  • Новинки:
    • 4:44 Последний день на Земле
    • Снежное шоу
    • Цезарь должен умереть
  • Бонусы:
    • Фильм о фильме
    • Интервью с Марио Касасом
    • Трейлер

DVDInfo…

Title: Три.метра.над.уровнем.неба.Я.тебя.хочу-Tengo.ganas.de.ti.(2012).DVD9
Size: 6.41 Gb ( 6 721 126 KBytes ) - DVD-9
Enabled regions: 1, 2, 3, 4, 5, 6, 7, 8
VTS_01 :
Play Length: 00:00:07
Video: PAL 16:9 (720x576) VBR, Auto Pan&Scan
Subtitles:
Russian
Russian
Not specified
VTS_02 :
Play Length: 00:00:11
Video: PAL 16:9 (720x576) VBR, Auto Pan&Scan
Audio:
Russian (Dolby AC3, 6 ch)
Subtitles:
Russian
Russian
VTS_03 :
Play Length: 00:00:23
Video: PAL 16:9 (720x576) VBR, Auto Pan&Scan
Audio:
Russian (Dolby AC3, 2 ch)
Subtitles:
Russian
Russian
VTS_04 :
Play Length: 00:00:15
Video: PAL 16:9 (720x576) VBR, Auto Pan&Scan
Audio:
Russian (Dolby AC3, 2 ch)
Subtitles:
Russian
Russian
VTS_05 :
Play Length: 00:00:16
Video: PAL 16:9 (720x576) VBR, Auto Pan&Scan
Audio:
Russian (Dolby AC3, 2 ch)
Subtitles:
Russian
Russian
VTS_06 :
Play Length: 00:00:15
Video: PAL 16:9 (720x576) VBR, Auto Pan&Scan
Audio:
Russian (Dolby AC3, 2 ch)
Subtitles:
Russian
Russian
VTS_07 :
Play Length: 00:00:15
Video: PAL 16:9 (720x576) VBR, Auto Pan&Scan
Audio:
Russian (Dolby AC3, 2 ch)
Subtitles:
Russian
Russian
VTS_08 :
Play Length: 00:00:10
Video: PAL 16:9 (720x576) VBR, Auto Pan&Scan
Audio:
Russian (Dolby AC3, 2 ch)
Subtitles:
Russian
Russian
VTS_09 :
Play Length: 00:02:11
Video: PAL 16:9 (720x576) VBR, Auto Pan&Scan
Audio:
Russian (Dolby AC3, 2 ch)
Subtitles:
Russian
Russian
VTS_10 :
Play Length: 00:06:23
Video: PAL 16:9 (720x576) VBR, Auto Pan&Scan
Audio:
Russian (Dolby AC3, 2 ch)
Subtitles:
Russian
Russian
VTS_11 :
Play Length: 00:02:10
Video: PAL 16:9 (720x576) VBR, Auto Pan&Scan
Audio:
Russian (Dolby AC3, 2 ch)
Subtitles:
Russian
Russian
VTS_12 :
Play Length: 00:00:59
Video: PAL 16:9 (720x576) VBR, Auto Pan&Scan
Audio:
Russian (Dolby AC3, 2 ch)
Subtitles:
Russian
Russian
VTS_13 :
Play Length: 00:23:20
Video: PAL 16:9 (720x576) VBR, Auto Pan&Scan
Audio:
Russian (LinearPCM, 2 ch)
Subtitles:
Russian
Russian
VTS_14 :
Play Length: 01:58:30
Video: PAL 16:9 (720x576) VBR, Auto Pan&Scan
Audio:
Russian (Dolby AC3, 6 ch)
Russian (Dolby AC3, 2 ch)
Subtitles:
Russian
Russian
VTS_15 :
Play Length: 00:01:22
Video: PAL 16:9 (720x576) VBR, Auto Pan&Scan
Audio:
Russian (Dolby AC3, 2 ch)
Subtitles:
Russian
Russian

MediaInfo...

Полное имя : D:\Три.метра.над.уровнем.неба.Я.тебя.хочу-Tengo.ganas.de.ti.(2012).DVD9\VIDEO_TS\VTS_14_2.VOB
Формат : MPEG-PS
Размер файла : 1024 Мбайт
Продолжительность : 23 м.
Режим общего битрейта : Переменный
Общий поток : 6066 Кбит/сек
Видео
Идентификатор : 224 (0xE0)
Формат : MPEG Video
Версия формата : Version 2
Профиль формата : [email protected]
Параметр BVOP формата : Да
Параметр матрицы формата : Выборочная
Параметр GOP формата : M=3, N=12
Продолжительность : 23 м.
Вид битрейта : Переменный
Битрейт : 5369 Кбит/сек
Максимальный битрейт : 8500 Кбит/сек
Ширина : 720 пикселей
Высота : 576 пикселей
Соотношение сторон : 16:9
Частота кадров : 25,000 кадров/сек
Стандарт вещания : PAL
Цветовое пространство : YUV
Субдискретизация насыщенности : 4:2:0
Битовая глубина : 8 бит
Тип развёртки : Чересстрочная
Порядок развёртки : Верхнее поле первое
Метод сжатия : С потерями
Бит/(Пиксели*Кадры) : 0.518
Размер потока : 906 Мбайт (89%)
Основные цвета : BT.601 PAL
Характеристики трансфера : BT.470 System B, BT.470 System G
Коэффициенты матрицы : BT.601
Аудио #1
Идентификатор : 189 (0xBD)-128 (0x80)
Формат : AC-3
Формат/Информация : Audio Coding 3
Расширение режима : CM (complete main)
Параметр Endianness формата : Big
Режим смешивания : DVD-Video
Продолжительность : 23 м.
Вид битрейта : Постоянный
Битрейт : 384 Кбит/сек
Каналы : 6 каналов
Расположение каналов : Front: L C R, Side: L R, LFE
Частота : 48,0 КГц
Битовая глубина : 16 бит
Метод сжатия : С потерями
Задержка видео : -544 мс.
Размер потока : 64,8 Мбайт (6%)
Аудио #2
Идентификатор : 189 (0xBD)-129 (0x81)
Формат : AC-3
Формат/Информация : Audio Coding 3
Расширение режима : CM (complete main)
Параметр Endianness формата : Big
Режим смешивания : DVD-Video
Продолжительность : 23 м.
Вид битрейта : Постоянный
Битрейт : 192 Кбит/сек
Каналы : 2 канала
Расположение каналов : Front: L R
Частота : 48,0 КГц
Битовая глубина : 16 бит
Метод сжатия : С потерями
Задержка видео : -448 мс.
Размер потока : 32,4 Мбайт (3%)
Текст
Идентификатор : 189 (0xBD)-32 (0x20)
Формат : RLE
Формат/Информация : Run-length encoding
Режим смешивания : DVD-Video
Продолжительность : 23 м.
Задержка видео : 1 с. 120 мс.
Меню

Скриншоты меню...

       

Скриншоты:

       
       
Other forum [Profile] [PM]
Display posts from previous:    
Reply to topic

The time now is: Today 09:32

All times are GMT + 3 Hours



You cannot post new topics in this forum
You cannot reply to topics in this forum
You cannot edit your posts in this forum
You cannot delete your posts in this forum
You cannot vote in polls in this forum
You cannot attach files in this forum
You cannot download files in this forum