Today is a free download without charge Download

Завтрак на траве (1979) DVDRip

Reply to topic
 
Author
Message

Koralina ®

Longevity: 9 years 9 months

Posts: 994

Location: Lithuania

Торрент-статистика

Post 09-Nov-2012 12:24

[Quote]

Завтрак на траве (1979) DVDRip-
Русское название: Завтрак на траве
Год выпуска: 1979
Жанр: Комедия, Семейный, Приключения
Описание фильма:
Веселый детский музыкальный фильм о жизни летнего пионерлагеря - о маленьких и больших проказах, о детских мечтах и развлечениях, о заботах взрослых. Музыкальный телефильм по мотивам рассказов А. Черноусова. Замечательный, ни к чему не обязывающий, фильм про жизнь в пионерском лагере, пионерское детство и походы, о том, как рабочий Иван Ковалев (Сергей Проханов, «Усатый нянь»), назнченный вожатым пионерского лагеря, вполне обоснованно добивается любви и уважения своих подопечных. В фильме звучат песни на музыку В.Шаинского: «Пожалуйста, не жалуйся», «Солдат молоденький», «Золотая рыбка», «Картошка», «Между нами, дикарями», «Жара», «Если в лагере дожди», «Если Вам…», «Город», «Ловись, ловись».
Режиссер: Николай Александрович
Актеры: Александр Демьяненко,Сергей Проханов, Валентина Талызина, Татьяна Лебедькова, Людмила Гравес, Максим Широков, Александр Коптев, Игорь Князев, Саша Жданов, Таня Самсонова, Геннадий Ялович, Владимир Новиков, Ирина Юревич
Продолжительность: 02:15:13

Видеокодек: Xvid
Битрейт видео: ~2063 Кбит/сек
Размер кадра: 704x528
Качество видео: DVDRip
Аудиокодек: AC3 2.0
Битрейт аудио: 192 Кбит/сек

MediaInfo:

Общее
Полное имя : G:\new 092012\!102\Завтрак на траве\Zavtrak.na.trave.(2.serii.iz.2)1979 DVDRip.avi
Формат : AVI
Формат/Информация : Audio Video Interleave
Размер файла : 2,14 Гбайт
Продолжительность : 2 ч. 15 м.
Общий поток : 2264 Кбит/сек
Программа кодирования : VirtualDubModRus 1.5.10.2 (build 2542/release)
Библиотека кодирования : Boilsoft AVI tool build 30012/release
Видео
Идентификатор : 0
Формат : MPEG-4 Visual
Профиль формата : Advanced [email protected]
Параметр BVOP формата : 2
Параметр QPel формата : Да
Параметр GMC формата : Без точки перехода
Параметр матрицы формата : Default (H.263)
Идентификатор кодека : XVID
Идентификатор кодека/Подсказка : XviD
Продолжительность : 2 ч. 15 м.
Битрейт : 2063 Кбит/сек
Ширина : 704 пикселя
Высота : 528 пикселей
Соотношение сторон : 4:3
Частота кадров : 25,000 кадров/сек
Цветовое пространство : YUV
Субдискретизация насыщенности : 4:2:0
Битовая глубина : 8 бит
Тип развёртки : Прогрессивная
Метод сжатия : С потерями
Бит/(Пиксели*Кадры) : 0.222
Размер потока : 1,95 Гбайт (91%)
Библиотека кодирования : XviD 1.2.1 (UTC 2008-12-04)
Аудио
Идентификатор : 1
Формат : AC-3
Формат/Информация : Audio Coding 3
Расширение режима : CM (complete main)
Параметр Endianness формата : Big
Идентификатор кодека : 2000
Продолжительность : 2 ч. 15 м.
Вид битрейта : Постоянный
Битрейт : 192 Кбит/сек
Каналы : 2 канала
Расположение каналов : Front: L R
Частота : 48,0 КГц
Битовая глубина : 16 бит
Метод сжатия : С потерями
Размер потока : 186 Мбайт (8%)
Выравнивание : Разделение по промежуткам
Продолжительность промежутка : 40 мс. (1,00 видеокадр)
Время предзагрузки промежутка : 500 мс.
Скриншоты:
         
         

_________________
Other forum [Profile] [PM]
Display posts from previous:    
Reply to topic

The time now is: Today 03:08

All times are GMT + 3 Hours



You cannot post new topics in this forum
You cannot reply to topics in this forum
You cannot edit your posts in this forum
You cannot delete your posts in this forum
You cannot vote in polls in this forum
You cannot attach files in this forum
You cannot download files in this forum