Today is a free download without charge Download

Космополис / Cosmopolis (Дэвид Кроненберг / David Cronenberg) [2012 , Канада, Франция, Португалия, Италия , триллер, драма , BDRip 1080p ]

Reply to topic
 
Author
Message

Delia ®

Gender:

Longevity: 10 years

Posts: 1821

Торрент-статистика

Post 08-Nov-2012 23:40

[Quote]

-КосмополисCosmopolis-- Год выпуска: 2012
Страна: Канада , Франция , Португалия , Италия
Жанр: триллер, драма
Продолжительность: 01:48:51
Перевод: Профессиональный (полное дублирование)
Режиссер: Дэвид Кроненберг / David Cronenberg
Сценарий: Дэвид Кроненберг / David Cronenberg, Дон ДеЛилло / Don DeLillo
Продюсер: Паулу Бранку / Paulo Branco, Мартин Кац / Martin Katz, Джозеф Боччиа / Joseph Boccia, Эдуард Карминьяк / Edouard Carmignac, Уолтер Гаспарович / Walter Gasparovic
Оператор: Питер Сушицки / Peter Suschitzky
Композитор: Говард Шор / Howard Shore В ролях: Роберт Паттинсон (Eric Packer), Сара Гадон (Elise Shifrin), Пол Джаматти (Benno Levin), Кевин Дюран (Torval), Абдул Айула (Ibrahim Hamadou), Жюльет Бинош (Didi Fancher), Эмили Хэмпшир (Jane Melman), Боб Бэйнборо (Dr. Ingram), Саманта Мортон (Vija Kinsky), Желько Кесойевич (Danko), Джей Барушель (Shiner), Филлип Нозука (Michael Chin)-Описание: 24 часа из жизни 28-летнего миллиардера-финансиста Эрика Пэкера, который изменяет своей молодой жене, подвергается нападению и разом теряет все свое состояние. Действие ленты будет разворачиваться на Манхэттене в течение одних суток.--Бюджет: $20 500 000
Сборы в США: $763 556
Сборы в мире: $6 063 556
Мировая премьера: 25 мая 2012
Релиз на DVD: 6 сентября 2012, «Новый Диск», «New Dream media»-
MPAA: - Лицам до 17 лет обязательно присутствие взрослого--
Качество: BDRip
Контейнер: MKV
Видео: AVC, 1920x1040 (16:9), 9690 kbps, 24 fps, 0,202 bpp
Аудио №1: русский /; AC3 /; 5.1 /; 48 kHz /; 384 kbps /; 16 bit
Аудио №2: английский /; AC3 /; 5.1 /; 48 kHz /; 384 kbps /; 16 bit
Субтитры №1: русские; (дубляж)
Субтитры №2: русские; (Groby)
Субтитры №3: английские
Навигация по главам: есть

x264

x264 [info]: frame I:1062 Avg QP:17.69 size:189428
x264 [info]: frame P:29576 Avg QP:19.53 size: 80894
x264 [info]: frame B:126107 Avg QP:21.86 size: 42064
x264 [info]: consecutive B-frames: 1.1% 0.9% 4.4% 10.2% 15.9% 52.1% 11.2% 3.0% 0.5% 0.7%

Media Info

General
Unique ID : 212715740459127468206847117520742354791 (0xA0078FB92C6BE9578A5C919720D38F67)
Complete name : E:\Torrent\Космополис.2012.BDRip-F.HD .mkv
Format : Matroska
Format version : Version 2
File size : 7.94 GiB
Duration : 1h 48mn
Overall bit rate : 10.4 Mbps
Encoded date : UTC 2012-11-08 19:19:22
Writing application : mkvmerge v5.8.0 ('No Sleep / Pillow') built on Sep 2 2012 15:37:04
Writing library : libebml v1.2.3 + libmatroska v1.3.0
Video
ID : 1
Format : AVC
Format/Info : Advanced Video Codec
Format profile : [email protected]
Format settings, CABAC : Yes
Format settings, ReFrames : 4 frames
Codec ID : V_MPEG4/ISO/AVC
Duration : 1h 48mn
Bit rate : 9 690 Kbps
Width : 1 920 pixels
Height : 1 040 pixels
Display aspect ratio : 16:9
Frame rate : 24.000 fps
Color space : YUV
Chroma subsampling : 4:2:0
Bit depth : 8 bits
Scan type : Progressive
Bits/(Pixel*Frame) : 0.202
Stream size : 7.20 GiB (91%)
Writing library : x264 core 128 r2216 198a7ea
Encoding settings : cabac=1 / ref=4 / deblock=1:-3:-3 / analyse=0x3:0x113 / me=umh / subme=10 / psy=1 / psy_rd=0.95:0.05 / mixed_ref=1 / me_range=32 / chroma_me=1 / trellis=2 / 8x8dct=1 / cqm=0 / deadzone=21,11 / fast_pskip=0 / chroma_qp_offset=1 / threads=6 / lookahead_threads=1 / sliced_threads=0 / nr=0 / decimate=1 / interlaced=0 / bluray_compat=0 / constrained_intra=0 / bframes=9 / b_pyramid=2 / b_adapt=2 / b_bias=0 / direct=3 / weightb=1 / open_gop=0 / weightp=2 / keyint=240 / keyint_min=24 / scenecut=40 / intra_refresh=0 / rc=2pass / mbtree=0 / bitrate=9690 / ratetol=1.0 / qcomp=0.70 / qpmin=0 / qpmax=69 / qpstep=4 / cplxblur=20.0 / qblur=0.5 / ip_ratio=1.25 / pb_ratio=1.25 / aq=2:0.80
Language : English
Default : Yes
Forced : No
Color primaries : BT.709-5, BT.1361, IEC 61966-2-4, SMPTE RP177
Transfer characteristics : BT.709-5, BT.1361
Matrix coefficients : BT.709-5, BT.1361, IEC 61966-2-4 709, SMPTE RP177
Audio #1
ID : 2
Format : AC-3
Format/Info : Audio Coding 3
Mode extension : CM (complete main)
Codec ID : A_AC3
Duration : 1h 48mn
Bit rate mode : Constant
Bit rate : 384 Kbps
Channel(s) : 6 channels
Channel positions : Front: L C R, Side: L R, LFE
Sampling rate : 48.0 KHz
Bit depth : 16 bits
Compression mode : Lossy
Stream size : 299 MiB (4%)
Language : Russian
Default : Yes
Forced : No
Audio #2
ID : 3
Format : AC-3
Format/Info : Audio Coding 3
Mode extension : CM (complete main)
Codec ID : A_AC3
Duration : 1h 48mn
Bit rate mode : Constant
Bit rate : 384 Kbps
Channel(s) : 6 channels
Channel positions : Front: L C R, Side: L R, LFE
Sampling rate : 48.0 KHz
Bit depth : 16 bits
Compression mode : Lossy
Stream size : 299 MiB (4%)
Language : English
Default : No
Forced : No
Text #1
ID : 4
Format : UTF-8
Codec ID : S_TEXT/UTF8
Codec ID/Info : UTF-8 Plain Text
Title : дубляж
Language : Russian
Default : No
Forced : No
Text #2
ID : 5
Format : UTF-8
Codec ID : S_TEXT/UTF8
Codec ID/Info : UTF-8 Plain Text
Title : Groby
Language : Russian
Default : No
Forced : No
Text #3
ID : 6
Format : UTF-8
Codec ID : S_TEXT/UTF8
Codec ID/Info : UTF-8 Plain Text
Language : English
Default : No
Forced : No
Menu
00:00:00.000 : en:Chapter 1
00:05:55.916 : en:Chapter 2
00:13:24.166 : en:Chapter 3
00:20:59.000 : en:Chapter 4
00:29:11.500 : en:Chapter 5
00:35:52.375 : en:Chapter 6
00:44:52.541 : en:Chapter 7
00:49:30.083 : en:Chapter 8
00:56:28.750 : en:Chapter 9
01:01:14.041 : en:Chapter 10
01:07:30.291 : en:Chapter 11
01:17:24.458 : en:Chapter 12

Знаете ли Вы, что...

  • Колин Фаррел изначально должен был сниматься в фильме, но покинул проект из-за несогласованности расписаний съемок с фильмом «Вспомнить всё» (2012). В итоге его место занял Роберт Паттинсон.
  • Марион Котийяр должна была сниматься в фильме, но отказалась в связи с беременностью.
  • После того как проект покинула Марион Котийяр, на ее место рассматривались кандидатуры Нуми Рапас и Киры Найтли.
  • Дэвид Кроненберг написал сценарий за шесть дней.

Скриншоты

     
     

_________________
Человек – это канат, натянутый между животным и сверхчеловеком, – канат над пропастью.
В человеке ценно то, что он мост, а не цель. Фридрих Ницше
Other forum [Profile] [PM]
Display posts from previous:    
Reply to topic

The time now is: Today 13:26

All times are GMT + 3 Hours



You cannot post new topics in this forum
You cannot reply to topics in this forum
You cannot edit your posts in this forum
You cannot delete your posts in this forum
You cannot vote in polls in this forum
You cannot attach files in this forum
You cannot download files in this forum