Today is a free download without charge Download

Рапунцель: Запутанная история / Tangled (2010) Blu-Ray Remux 1080p

Reply to topic
 
Author
Message

Delia ®

Gender:

Longevity: 10 years

Posts: 1821

Торрент-статистика

Post 22-Mar-2011 09:43

[Quote]

Рапунцель: Запутанная историяTangled Год выпуска:2010
Страна:США, Walt Disney Pictures
Жанр: Мультфильм, Мюзикл, Фэнтези, Мелодрама, Комедия, Семейный
Продолжительность: 01:40:57
Перевод:Профессиональный (полное дублирование)
Режиссер:Натан Грено, Байрон Ховард
Продюссер:Рой Конли, Глен Кин, Джон Лассетер
Дата мировой премьеры: 24 ноября 2010
Дата российской премьеры: 25 ноября 2010, «WDSSPR»
Дата выхода DVD релиза: 22 марта 2011, «Уолт Дисней Компани СНГ»
Бюджет: $260 000 000
Сборы в мире: $551 475 983
Роли озвучивали: Мэнди Мур, Рон Перлман, Захари Левай, Донна Мерфи, М.К.Гейни, Джефри Тэмбор, Брэд Гэррет, Пол Ф.Томпкинс, Ричард Кил, Делани Роуз Стейн
Роли дублировали:Виктория Дайнеко,Андрей Бирин,Григорий Антипенко,Мария Кац,Григорий Перель
Описание:Обаятельный разбойник Флинн путешествует по жизни с легкостью, лишь потому, что он красив, болтлив и удачлив. И казалось, фортуна всегда на его стороне, пока однажды он не выбирает высокую башню в густой чаще леса в качестве «спокойного» убежища. Флинн оказывается связанным по рукам и ногам юной красавицей по имени Рапунцель. Если вы думаете, что самое интересное в ней — это 21 метр волшебных золотистых волос, то вы заблуждаетесь! Запертая в башне и отчаянно ищущая приключений, Рапунцель решает использовать Флинна в качестве билета в большой мир. Сначала комичное похищение, затем невинный шантаж — и вот наши герои на воле. Вместе с главными героями в авантюрное путешествие отправятся бравый конь-ищейка Максимус, ручной хамелеон и шайка сумасбродных разбойников.
Качество:Blu-Ray Remux (1080p)
Формат:BDAV
Видео:BDAV: 24,2 Мбит/сек, 1920*1080 (16:9), в 23,976 кадр/сек, AVC
Аудио:Russian, 640 Кбит/сек, 48,0 КГц, 16 бит, 6 канала(ов), AC-3
Аудио:Ukrainian, 640 Кбит/сек, 48,0 КГц, 16 бит, 6 канала(ов), AC-3
Аудио:English, 640 Кбит/сек, 48,0 КГц, 16 бит, 6 канала(ов), AC-3
Субтитры:Russian,Ukrainian,English

Media Info:

Общее
Идентификатор : 1 (0x1)
Полное имя : E:торрентTangled 2010 BluRayCEE-Remux(1080p) 003.m2ts
Формат : BDAV
Формат/Информация : Blu-ray Video
Размер файла : 19,1 Гбайт
Продолжительность : 1 ч. 40 м.
Общий поток : 27,2 Мбит/сек
Максимальный общий битрейт : 35,5 Мбит/сек
Видео
Идентификатор : 4113 (0x1011)
Идентификатор меню : 1 (0x1)
Формат : AVC
Формат/Информация : Advanced Video Codec
Профиль формата : [email protected]
Параметр CABAC формата : Да
Параметр ReFrames формата : 4 кадры
Идентификатор кодека : 27
Продолжительность : 1 ч. 40 м.
Вид битрейта : Переменный
Битрейт : 24,2 Мбит/сек
Максимальный битрейт : 33,0 Мбит/сек
Ширина : 1920 пикс.
Высота : 1080 пикс.
Соотношение сторон : 16:9
Частота кадров : 23,976 кадр/сек
Цветовое пространство : YUV
Подвыборка цветности : 4:2:0
Битовая глубина : 8 бит
Тип развёртки : Прогрессивная
Бит/(Пиксели*Кадры) : 0.486
Размер потока : 16,9 Гбайт (89%)
Основные цвета : BT.709-5, BT.1361, IEC 61966-2-4, SMPTE RP177
Характеристики трансфера : BT.709-5, BT.1361
Коэффициенты матрицы : BT.709-5, BT.1361, IEC 61966-2-4 709, SMPTE RP177
Аудио #1
Идентификатор : 4352 (0x1100)
Идентификатор меню : 1 (0x1)
Формат : AC-3
Формат/Информация : Audio Coding 3
Расширение режима : CM (complete main)
Идентификатор кодека : 129
Продолжительность : 1 ч. 40 м.
Вид битрейта : Постоянный
Битрейт : 640 Кбит/сек
Канал(ы) : 6 канала(ов)
Расположение каналов : Front: L C R, Side: L R, LFE
Частота : 48,0 КГц
Битовая глубина : 16 бит
Метод сжатия : С потерями
Размер потока : 459 Мбайт (2%)
Язык : Russian
Аудио #2
Идентификатор : 4353 (0x1101)
Идентификатор меню : 1 (0x1)
Формат : AC-3
Формат/Информация : Audio Coding 3
Расширение режима : CM (complete main)
Идентификатор кодека : 129
Продолжительность : 1 ч. 40 м.
Вид битрейта : Постоянный
Битрейт : 640 Кбит/сек
Канал(ы) : 6 канала(ов)
Расположение каналов : Front: L C R, Side: L R, LFE
Частота : 48,0 КГц
Битовая глубина : 16 бит
Метод сжатия : С потерями
Размер потока : 459 Мбайт (2%)
Язык : Ukrainian
Аудио #3
Идентификатор : 4354 (0x1102)
Идентификатор меню : 1 (0x1)
Формат : AC-3
Формат/Информация : Audio Coding 3
Расширение режима : CM (complete main)
Идентификатор кодека : 129
Продолжительность : 1 ч. 40 м.
Вид битрейта : Постоянный
Битрейт : 640 Кбит/сек
Канал(ы) : 6 канала(ов)
Расположение каналов : Front: L C R, Side: L R, LFE
Частота : 48,0 КГц
Битовая глубина : 16 бит
Метод сжатия : С потерями
Размер потока : 459 Мбайт (2%)
Язык : English
Текст #1
Идентификатор : 4608 (0x1200)
Идентификатор меню : 1 (0x1)
Формат : PGS
Идентификатор кодека : 144
Продолжительность : 1 ч. 40 м.
Задержка видео : 1 с. 2 мс.
Язык : Russian
Текст #2
Идентификатор : 4609 (0x1201)
Идентификатор меню : 1 (0x1)
Формат : PGS
Идентификатор кодека : 144
Продолжительность : 1 ч. 40 м.
Задержка видео : 1 с. 2 мс.
Язык : Ukrainian
Текст #3
Идентификатор : 4610 (0x1202)
Идентификатор меню : 1 (0x1)
Формат : PGS
Идентификатор кодека : 144
Продолжительность : 1 ч. 40 м.
Задержка видео : 1 с. 2 мс.
Язык : English

Скриншоты

    

_________________
Человек – это канат, натянутый между животным и сверхчеловеком, – канат над пропастью.
В человеке ценно то, что он мост, а не цель. Фридрих Ницше


Last edited by Delia on 2011-08-26 00:11; edited 3 times in total
Other forum [Profile] [PM]

Dracula

Longevity: 7 years 1 month

Posts: 11396

Торрент-статистика

Post 18-Dec-2011 23:36 (after 8 months 27 days)

Топик был перенесен из форума Мультфильмы (HD) в форум Мультфильмы

Delia
 
Display posts from previous:    
Reply to topic

The time now is: Today 06:28

All times are GMT + 3 Hours



You cannot post new topics in this forum
You cannot reply to topics in this forum
You cannot edit your posts in this forum
You cannot delete your posts in this forum
You cannot vote in polls in this forum
You cannot attach files in this forum
You cannot download files in this forum