Today is a free download without charge Download

Вспоминая Титанов / Remember the Titans (Боаз Якин / Boaz Yakin) [2000 г., драма, спорт, BDRip1080p]

Reply to topic
 
Author
Message

Delia ®

Gender:

Longevity: 11 years

Posts: 1821

Торрент-статистика

Post 08-Nov-2012 08:50

[Quote]

-Вспоминая ТитановRemember the Titans«Before they could win, they had to become one.»-- Год выпуска: 2000
Страна: США
Жанр: драма, биография, спорт
Продолжительность: 01:53:26
Перевод: Профессиональный (многоголосый, закадровый)
Режиссер: Боаз Якин / Boaz Yakin
Сценарий: Грегори Аллен Ховард / Gregory Allen Howard
Продюсер: Джерри Брукхаймер / Jerry Bruckheimer, Майкл Флинн / Michael Flynn, Дженнифер Круг-Вортингтон / Jennifer Krug-Worthington, Чад Оман / Chad Oman, Пэт Сэндстон / Pat Sandston
Оператор: Филипп Русло / Philippe Rousselot
Композитор: Тревор Рэбин / Trevor Rabin, Норман Гринбаум / Norman Greenbaum, Джесси Грир / Jesse Greer, Эдвард Холлэнд мл. / Eddie Holland, PaulLeka / Paul Leka В ролях: Дензел Вашингтон (Coach Herman Boone), Уилл Пэттон (Coach Bill Yoast), Вуд Харрис (Julius Campbell), Райан Херст (Gerry Bertier), Дональд Фэйсон (Petey Jones), Крэйг Кирквуд (Jerry 'Rev' Harris), Итан Сапли (Louie Lastik), Кип Парду (Ronnie 'Sunshine' Bass), Хайден Панеттьери (Sheryl Yoast), Николь Ари Паркер (Carol Boone), Кейт Босворт (Emma Hoyt), Эрл Пуатье (Blue Stanton)
Описание: При виде этих могучих статных парней девушки падают в обморок, а их кавалеры от зависти проливают свое пиво. Это игроки в одну из самых жестких и динамичных спортивных игр мира - американский футбол.
Для них нет большей радости в жизни, кроме как с победным ревом «тачдаун!» впечатать мяч в зачетную зону соперника, оставив за спиной живописную композицию из сшибленных с ног вражеских защитников. Победа!
Но мало кто знает, как труден их путь к славе. Герой этого фильма, тренер Герман Бун - из тех, кто знает. Он пришел в школьную команду «Титаны» когда она совсем не заслуживала свое название.
Преодолевая сопротивление местного тренера Билла Йоста, Бун приступает к превращению банды лоботрясов в дружную команду.
И аутсайдеры «Титаны» постепенно становятся уверенными в себе грозными игроками, готовыми биться за звание чемпионов штата...

Бюджет: $30 000 000
Маркетинг: $26 200 000
Сборы в США: $115 654 751
Сборы в мире: $136 706 683
Мировая премьера: 23 сентября 2000-
MPAA: - Рекомендуется присутствие родителей--Качество: BDRip
Контейнер: MKV
Видео: AVC, 1920x816 (2.35:1), 9137 kbps, 23,976 fps, 0,243 bpp
Аудио №1: русский /; AC3 /; 5.1 /; 48 kHz /; 448 kbps /; 16 bit (Видеосервис)
Аудио №2: английский /; AC3 /; 5.1 /; 48 kHz /; 448 kbps /; 16 bit
Субтитры: английские
Навигация по главам: есть--

x264

x264 [info]: frame I:1045 Avg QP:16.57 size:123197
x264 [info]: frame P:42178 Avg QP:18.23 size: 73472
x264 [info]: frame B:119977 Avg QP:20.06 size: 37858
x264 [info]: consecutive B-frames: 3.3% 4.5% 21.0% 21.9% 11.2% 33.9% 2.6% 0.8% 0.8%

Media Info

General
Unique ID : 195371674176941030367218256738105716771 (0x92FB373BEEA89ED89EFA9AD8ACBC7023)
Complete name : E:\Vspominaya.titanov.2000.BDRip-F.HD.mkv
Format : Matroska
Format version : Version 2
File size : 7.95 GiB
Duration : 1h 53mn
Overall bit rate : 10.0 Mbps
Encoded date : UTC 2012-11-08 04:40:14
Writing application : mkvmerge v5.8.0 ('No Sleep / Pillow') built on Sep 2 2012 15:37:04
Writing library : libebml v1.2.3 + libmatroska v1.3.0
Video
ID : 1
Format : AVC
Format/Info : Advanced Video Codec
Format profile : [email protected]
Format settings, CABAC : Yes
Format settings, ReFrames : 5 frames
Codec ID : V_MPEG4/ISO/AVC
Duration : 1h 53mn
Bit rate : 9 137 Kbps
Width : 1 920 pixels
Height : 816 pixels
Display aspect ratio : 2.35:1
Frame rate : 23.976 fps
Color space : YUV
Chroma subsampling : 4:2:0
Bit depth : 8 bits
Scan type : Progressive
Bits/(Pixel*Frame) : 0.243
Stream size : 7.08 GiB (89%)
Writing library : x264 core 128 r2216 198a7ea
Encoding settings : cabac=1 / ref=5 / deblock=1:-3:-3 / analyse=0x3:0x113 / me=umh / subme=10 / psy=1 / psy_rd=1.00:0.05 / mixed_ref=1 / me_range=32 / chroma_me=1 / trellis=2 / 8x8dct=1 / cqm=0 / deadzone=21,11 / fast_pskip=0 / chroma_qp_offset=1 / threads=6 / lookahead_threads=1 / sliced_threads=0 / nr=0 / decimate=1 / interlaced=0 / bluray_compat=0 / constrained_intra=0 / bframes=8 / b_pyramid=2 / b_adapt=2 / b_bias=0 / direct=3 / weightb=1 / open_gop=0 / weightp=2 / keyint=240 / keyint_min=23 / scenecut=40 / intra_refresh=0 / rc=2pass / mbtree=0 / bitrate=9137 / ratetol=1.0 / qcomp=0.70 / qpmin=0 / qpmax=69 / qpstep=4 / cplxblur=20.0 / qblur=0.5 / ip_ratio=1.25 / pb_ratio=1.25 / aq=2:0.80
Language : English
Default : Yes
Forced : No
Color primaries : BT.709-5, BT.1361, IEC 61966-2-4, SMPTE RP177
Transfer characteristics : BT.709-5, BT.1361
Matrix coefficients : BT.709-5, BT.1361, IEC 61966-2-4 709, SMPTE RP177
Audio #1
ID : 2
Format : AC-3
Format/Info : Audio Coding 3
Mode extension : CM (complete main)
Codec ID : A_AC3
Duration : 1h 53mn
Bit rate mode : Constant
Bit rate : 448 Kbps
Channel(s) : 6 channels
Channel positions : Front: L C R, Side: L R, LFE
Sampling rate : 48.0 KHz
Bit depth : 16 bits
Compression mode : Lossy
Stream size : 364 MiB (4%)
Title : (Видеосервис)
Language : Russian
Default : Yes
Forced : No
Audio #2
ID : 3
Format : AC-3
Format/Info : Audio Coding 3
Mode extension : CM (complete main)
Codec ID : A_AC3
Duration : 1h 53mn
Bit rate mode : Constant
Bit rate : 448 Kbps
Channel(s) : 6 channels
Channel positions : Front: L C R, Side: L R, LFE
Sampling rate : 48.0 KHz
Bit depth : 16 bits
Compression mode : Lossy
Stream size : 364 MiB (4%)
Language : English
Default : No
Forced : No
Text
ID : 4
Format : UTF-8
Codec ID : S_TEXT/UTF8
Codec ID/Info : UTF-8 Plain Text
Language : English
Default : No
Forced : No
Menu
00:00:00.000 : en:Opening Credits / Alexandria 1971
00:03:08.688 : en:New Assistant
00:07:26.904 : en:Unwelcome Visitor
00:10:28.961 : en:"Zero Fun, Sir"
00:14:22.319 : en:"Who's Your Daddy"
00:18:13.592 : en:Setting the Rules
00:22:07.784 : en:"Ain't Too Proud To Beg"
00:25:51.675 : en:Tired & Thirsty
00:29:10.707 : en:Bertier & Big Ju
00:30:50.473 : en:Lesson From the Dead
00:34:02.623 : en:Left Side, Strong Side
00:37:00.635 : en:Sunshine
00:40:36.851 : en:Too Strong
00:43:51.045 : en:Back in the Real World
00:46:35.667 : en:Rule Like titans
00:49:27.172 : en:Petey On D
00:53:21.865 : en:Service Refused
00:54:46.032 : en:Adjustments
01:01:47.036 : en:Picking Sides
01:06:53.384 : en:The Singing Titans
01:10:14.501 : en:Tough Decisions
01:13:48.549 : en:Changing Times
01:17:13.128 : en:Remember Forever
01:22:19.935 : en:Winning & Losing
01:26:23.428 : en:Fallen Titan
01:32:44.308 : en:State Championship
01:36:19.273 : en:Worthy Opponents
01:37:57.121 : en:Trusting the Soul
01:39:09.318 : en:"Our Time"
01:42:41.196 : en:Fake 23 Blast
01:45:39.207 : en:Making It Work
01:48:04.102 : en:End Credits
01:53:25.799 : en:Fake 23 Blast


Скриншоты

     
     

_________________
Человек – это канат, натянутый между животным и сверхчеловеком, – канат над пропастью.
В человеке ценно то, что он мост, а не цель. Фридрих Ницше
Other forum [Profile] [PM]
Display posts from previous:    
Reply to topic

The time now is: Today 02:50

All times are GMT + 3 Hours



You cannot post new topics in this forum
You cannot reply to topics in this forum
You cannot edit your posts in this forum
You cannot delete your posts in this forum
You cannot vote in polls in this forum
You cannot attach files in this forum
You cannot download files in this forum