Today is a free download without charge Download

Убойное Рождество Гарольда и Кумара / A Very Harold & Kumar 3D Christmas (Тодд Штраус-Шульсон) [2011 г., комедия, DVD5]

Reply to topic
 
Author
Message

Meshanik ®

Gender:

Longevity: 8 years 10 months

Posts: 3866

Location: Los Angeles

Торрент-статистика

Post 08-Nov-2012 06:09

[Quote]

Убойное Рождество Гарольда и Кумара / A Very Harold & Kumar 3D Christmas- Русское название: Убойное Рождество Гарольда и Кумара
Оригинальное название: A Very Harold & Kumar 3D Christmas
Год выпуска: 2011
Производство: США
Студия: New Line Cinema, Kingsgate Films, Mandate Pictures
Бюджет: $19 000 000
Жанр: Комедия
Продолжительность: 01:26:00
Перевод: Двуголосый закадровый, профессиональный [Кубик в кубе] (Осторожно! Ненормативная лексика!)
Вид субтитров: Вшитые отключаемые
Язык субтитров: Русский, Английский-Дата мировой премьеры: 4 ноября 2011
Режиссер: Тодд Штраус-Шульсон
Продюсер: Грег Шапиро, Ричард Бренер, Николь Браун
Актеры: Джон Чо, Кэл Пенн, Нил Патрик Харрис, Пэттон Освальт, Изабелла Жельняк, Остин Бикел, Инга Р.Уилсон, Бобби Ли, Томас Леннон, Амир Блюменфилд-Описание фильма:
Прошло шесть лет после приключения в проливе Гуантанамо. На этот раз закадычные друзья Гарольд Ли и Кумар Пател сорвали праздник, случайно спалив дотла призовую рождественскую ель тестя Гарольда.- -Качество видео: DVD5
Видеокодек: MPEG-2
Битрейт видео: ~6185 kb/s
Размер кадра: PAL 16:9 ([email protected])
Аудиокодек и битрейт аудио:
Аудио #1: Русский ( AC3, 6 ch, 448 kb/s)
Аудио #2: Английский ( AC3, 6 ch, 448 kb/s )
-

Дополнительно:

нет

MediaInfo

Общее
Полное имя : D:\Убойное Рождество Гарольда и Кумара\Убойное Рождество Гарольда и Кумара DVD5\VIDEO_TS\VTS_01_1.VOB
Формат : MPEG-PS
Размер файла : 1000 Мбайт
Продолжительность : 19 м.
Режим общего битрейта : Переменный
Общий поток : 7224 Кбит/сек
Видео
Идентификатор : 224 (0xE0)
Формат : MPEG Video
Версия формата : Version 2
Профиль формата : [email protected]
Параметр BVOP формата : Да
Параметр матрицы формата : Выборочная
Продолжительность : 19 м.
Вид битрейта : Переменный
Битрейт : 6185 Кбит/сек
Максимальный битрейт : 8000 Кбит/сек
Ширина : 720 пикселей
Высота : 576 пикселей
Соотношение сторон : 16:9
Частота кадров : 25,000 кадров/сек
Стандарт вещания : PAL
Цветовое пространство : YUV
Субдискретизация насыщенности : 4:2:0
Битовая глубина : 8 бит
Тип развёртки : Прогрессивная
Метод сжатия : С потерями
Бит/(Пиксели*Кадры) : 0.597
Размер потока : 856 Мбайт (86%)
Аудио #1
Идентификатор : 189 (0xBD)-128 (0x80)
Формат : AC-3
Формат/Информация : Audio Coding 3
Расширение режима : CM (complete main)
Режим смешивания : DVD-Video
Продолжительность : 19 м.
Вид битрейта : Постоянный
Битрейт : 448 Кбит/сек
Каналы : 6 каналов
Расположение каналов : Front: L C R, Side: L R, LFE
Частота : 48,0 КГц
Битовая глубина : 16 бит
Метод сжатия : С потерями
Размер потока : 62,0 Мбайт (6%)
Аудио #2
Идентификатор : 189 (0xBD)-129 (0x81)
Формат : AC-3
Формат/Информация : Audio Coding 3
Расширение режима : CM (complete main)
Режим смешивания : DVD-Video
Продолжительность : 19 м.
Вид битрейта : Постоянный
Битрейт : 448 Кбит/сек
Каналы : 6 каналов
Расположение каналов : Front: L C R, Side: L R, LFE
Частота : 48,0 КГц
Битовая глубина : 16 бит
Метод сжатия : С потерями
Размер потока : 62,0 Мбайт (6%)
Текст #1
Идентификатор : 189 (0xBD)-32 (0x20)
Формат : RLE
Формат/Информация : Run-length encoding
Режим смешивания : DVD-Video
Текст #2
Идентификатор : 189 (0xBD)-33 (0x21)
Формат : RLE
Формат/Информация : Run-length encoding
Режим смешивания : DVD-Video
Текст #3
Идентификатор : 189 (0xBD)-34 (0x22)
Формат : RLE
Формат/Информация : Run-length encoding
Режим смешивания : DVD-Video
Текст #4
Идентификатор : 189 (0xBD)-35 (0x23)
Формат : RLE
Формат/Информация : Run-length encoding
Режим смешивания : DVD-Video
Меню

DVDInfo

Title: Убойное Рождество Гарольда и Кумара DVD5
Size: 4.36 Gb ( 4 573 066,00 KBytes ) - DVD-5
Enabled regions: 1, 2, 3, 4, 5, 6, 7, 8
VTS_01 :
Play Length: 01:26:00
Video: PAL 16:9 (720x576) VBR, Auto Letterboxed
Audio:
Russian (Dolby AC3, 6 ch)
English (Dolby AC3, 6 ch)
Subtitles:
Russian
English

Создание релиза

Это не лицензия, претензии не принимаются!
Исходник Blu-Ray, скачан из сети.
Меню статичное, полностью озвученное, без динамических переходов.
Обработка производилась:
PhotoShop - работа над меню,
tsMuxer - демуксинг m2ts,
AVISynth, Carbon Coder - работа с видео,
BeHappy, Sony Vegas, - работа со звуком,
SupRip, Subtitle Workshop - работа над субтитрами,
Sony Vegas - синхронизация аудио и видео,
DVD Architect - создание DVD.
Работоспособность проверена на софтовом плеере Windows Media, PowerDVD и бытовом BBK.
Записано программой ImgBurn на DVD-RW болванку.

Скриншоты меню

     

Скриншоты:

             
-
Other forum [Profile] [PM]
Display posts from previous:    
Reply to topic

The time now is: Today 19:39

All times are GMT + 3 Hours



You cannot post new topics in this forum
You cannot reply to topics in this forum
You cannot edit your posts in this forum
You cannot delete your posts in this forum
You cannot vote in polls in this forum
You cannot attach files in this forum
You cannot download files in this forum