Today is a free download without charge Download

Третий лишний / Ted (Сет МакФарлейн) [2012 г., комедия, HDRip] [лицензия]

Reply to topic
 
Author
Message

Meshanik ®

Gender:

Longevity: 9 years

Posts: 3866

Location: Los Angeles

Торрент-статистика

Post 08-Nov-2012 03:31

[Quote]

-
Русское название: Третий лишний
Оригинальное название: Ted
Год выпуска: 2012
Производство: США | Universal Pictures, Media Rights Capital, Fuzzy Door Productions
Жанр: Фэнтези, Комедия
Продолжительность: 01:46:03
Перевод: Дублированный [лицензия]
Субтитры: Отсутствуют-Дата мировой премьеры: 29 июня 2012
Дата российской премьеры: 2 августа 2012, «UPI»
Дата выхода DVD релиза: 15 ноября 2012, «Двадцатый Век Фокс СНГ»-Режиссер: Сет МакФарлейн
Продюсер: Джейсон Кларк, Джон Джейкобс, Сет МакФарлейн
В ролях: Марк Уолберг, Мила Кунис, Сет МакФарлейн, Джоэль МакХэйл, Джованни Рибизи, Патрик Варбертон, Мэтт Уолш, Джессика Барт, Аэдин Минкс, Билл Смитрович-Описание фильма:
Джон влюблен в красавицу Лори, у него отличная работа и большие планы на будущее. Но в их отношения вмешивается третий, давний друг Джона — Тед. Он отрывается сутки напролет, предпочитает случайные связи и не желает терять друга. Но никто на самом деле не знает на что он способен, ведь Тед — большой плюшевый медведь.-
Рейтинг R17 - Детям до 17 лет обязательно присутствие родителей-Качество: HDRip
Формат: AVI
Видео кодек: XviD
Аудио кодек: AC3
Видео: 720x384 (1.88:1), 23.976 fps, XviD MPEG-4 ~1869 kbps avg, 0.28 bit/pixel
Аудио1: 48 kHz, AC3 Dolby Digital, 3/2 (L,C,R,l,r) + LFE ch, ~448 kbps (рус)
Аудио2: 48 kHz, AC3 Dolby Digital, 3/2 (L,C,R,l,r) + LFE ch, ~448 kbps (англ)
-

Mediainfo

Код:
General
Complete name                            : D:\Tretij.lishnij.2012.D.HDRip.2100MB.avi
Format                                   : AVI
Format/Info                              : Audio Video Interleave
Format profile                           : OpenDML
File size                                : 2.05 GiB
Duration                                 : 1h 46mn
Overall bit rate                         : 2 773 Kbps
Movie name                               : Tretij.lishnij.2012.D.HDRip.IRONCLUB
Director                                 : IRONCLUB
Genre                                    : Comedy | Fantasy
Writing application                      : VirtualDubMod 1.5.10.2 (build 2540/release)
Original source form/Name                : Movie
Copyright                                : http://ironclub.tv/
Video
ID                                       : 0
Format                                   : MPEG-4 Visual
Format profile                           : Advanced [email protected]
Format settings, BVOP                    : 2
Format settings, QPel                    : No
Format settings, GMC                     : No warppoints
Format settings, Matrix                  : Custom
Codec ID                                 : XVID
Codec ID/Hint                            : XviD
Duration                                 : 1h 46mn
Bit rate                                 : 1 858 Kbps
Width                                    : 720 pixels
Height                                   : 384 pixels
Display aspect ratio                     : 1.85:1
Frame rate                               : 23.976 fps
Color space                              : YUV
Chroma subsampling                       : 4:2:0
Bit depth                                : 8 bits
Scan type                                : Progressive
Compression mode                         : Lossy
Bits/(Pixel*Frame)                       : 0.280
Stream size                              : 1.38 GiB (67%)
Writing library                          : XviD 1.2.1 (UTC 2008-12-04)
Audio #1
ID                                       : 1
Format                                   : AC-3
Format/Info                              : Audio Coding 3
Mode extension                           : CM (complete main)
Format settings, Endianness              : Big
Codec ID                                 : 2000
Duration                                 : 1h 46mn
Bit rate mode                            : Constant
Bit rate                                 : 448 Kbps
Channel(s)                               : 6 channels
Channel positions                        : Front: L C R, Side: L R, LFE
Sampling rate                            : 48.0 KHz
Bit depth                                : 16 bits
Compression mode                         : Lossy
Stream size                              : 340 MiB (16%)
Alignment                                : Split accross interleaves
Interleave, duration                     : 42 ms (1.00 video frame)
Interleave, preload duration             : 500 ms
Audio #2
ID                                       : 2
Format                                   : AC-3
Format/Info                              : Audio Coding 3
Mode extension                           : CM (complete main)
Format settings, Endianness              : Big
Codec ID                                 : 2000
Duration                                 : 1h 46mn
Bit rate mode                            : Constant
Bit rate                                 : 448 Kbps
Channel(s)                               : 6 channels
Channel positions                        : Front: L C R, Side: L R, LFE
Sampling rate                            : 48.0 KHz
Bit depth                                : 16 bits
Compression mode                         : Lossy
Stream size                              : 340 MiB (16%)
Alignment                                : Split accross interleaves
Interleave, duration                     : 42 ms (1.00 video frame)
Interleave, preload duration             : 500 ms

Скриншоты

         
Other forum [Profile] [PM]
Display posts from previous:    
Reply to topic

The time now is: Today 23:18

All times are GMT + 3 Hours



You cannot post new topics in this forum
You cannot reply to topics in this forum
You cannot edit your posts in this forum
You cannot delete your posts in this forum
You cannot vote in polls in this forum
You cannot attach files in this forum
You cannot download files in this forum