Today is a free download without charge Download

Шишкин лес [2009, Обучающая видеопрограмма для детей, DVDRip, RUS]

Reply to topic
 
Author
Message

Omen ®

Longevity: 7 years 10 months

Posts: 181087

Торрент-статистика

Post 08-Nov-2012 00:42

[Quote]

Шишкин лес
Страна: Россия
Тематика: Обучающая видеопрограмма для детей
Тип раздаваемого материала: видеосюжеты
Продолжительность: ~12:00:00
Год выпуска: 2009
Язык: Русский
Перевод: Отсутствует
Описание: Телепроект «Шишкин Лес» – цикл детских, по-настоящему добрых и весёлых программ, способствующих гармоничному развитию ребёнка.
Герои этих программ – котёнок Коксик, мышка Шуня, волчонок Зубок и их старшие друзья Енот Енотыч и сова Матильда Леонардовна – учатся жить в мире, дружить, прощать и понимать друг друга. Вместе с ведущим забавные и смышлёные зверята много путешествуют, рассказывают о природе, сочиняют сказки, ставят кукольные спектакли.
Обучающее видео для детей «Шишкин Лес» – настоящее подспорье для чутких и внимательных родителей. Познавательно-воспитательные занятия не утомляют детей, процесс обучения проходит лёгко и непринуждённо.
Качество: DVDRip
Формат: MP4
Видео кодек: H.264
Аудио кодек: AAC
Видео: x264, 720x544, 4:3 (PAL), ~2000 Кбит/с, 25 fps.
Аудио: aac, 48 Кбит/с, 2 ch.
Mediainfo:
Общее
Полное имя : P:\Media\Teach4Child\ШишкинЛес\0101. Маяк.mp4
Формат : MPEG-4
Профиль формата : Base Media
Идентификатор кодека : isom
Размер файла : 99,0 Мбайт
Продолжительность : 6 м. 45 с.
Общий поток : 2051 Кбит/сек
Дата кодирования : UTC 2011-10-24 16:01:21
Дата пометки : UTC 2011-10-24 16:01:21
Видео
Идентификатор : 1
Формат : AVC
Формат/Информация : Advanced Video Codec
Профиль формата : [email protected]
Параметр CABAC формата : Да
Параметр ReFrames формата : 8 кадры
Идентификатор кодека : avc1
Идентификатор кодека/Информация : Advanced Video Coding
Продолжительность : 6 м. 44 с.
Вид битрейта : Переменный
Битрейт : 2000 Кбит/сек
Максимальный битрейт : 4746 Кбит/сек
Ширина : 720 пикс.
Высота : 544 пикс.
Соотношение сторон : 4:3
Режим частоты кадров : Постоянный
Частота кадров : 25,000 кадр/сек
Цветовое пространство : YUV
Подвыборка цветности : 4:2:0
Битовая глубина : 8 бит
Тип развёртки : Прогрессивная
Бит/(Пиксели*Кадры) : 0.204
Размер потока : 96,6 Мбайт (97%)
Библиотека кодирования : x264 core 118 r2085 8a62835
Настройки программы : cabac=1 / ref=8 / deblock=1:-1:-1 / analyse=0x3:0x133 / me=umh / subme=9 / psy=1 / psy_rd=1.00:0.00 / mixed_ref=1 / me_range=16 / chroma_me=1 / trellis=2 / 8x8dct=1 / cqm=0 / deadzone=21,11 / fast_pskip=1 / chroma_qp_offset=-2 / threads=6 / sliced_threads=0 / nr=0 / decimate=1 / interlaced=0 / bluray_compat=0 / constrained_intra=0 / bframes=3 / b_pyramid=2 / b_adapt=2 / b_bias=0 / direct=3 / weightb=1 / open_gop=1 / weightp=2 / keyint=250 / keyint_min=25 / scenecut=40 / intra_refresh=0 / rc_lookahead=60 / rc=2pass / mbtree=1 / bitrate=2000 / ratetol=1.0 / qcomp=0.60 / qpmin=0 / qpmax=69 / qpstep=4 / cplxblur=20.0 / qblur=0.5 / ip_ratio=1.40 / aq=1:1.00
Дата кодирования : UTC 2011-10-24 13:16:48
Дата пометки : UTC 2011-10-24 16:01:21
Аудио
Идентификатор : 2
Формат : AAC
Формат/Информация : Advanced Audio Codec
Профиль формата : HE-AACv2 / HE-AAC / LC
Идентификатор кодека : 40
Продолжительность : 6 м. 45 с.
Вид битрейта : Переменный
Битрейт : 48,0 Кбит/сек
Максимальный битрейт : 53,6 Кбит/сек
Канал(ы) : 2 канала(ов) / 1 канал / 1 канал
Расположение каналов : Front: L R / Front: C / Front: C
Частота : 48,0 КГц / 48,0 КГц / 24,0 КГц
Метод сжатия : С потерями
Размер потока : 2,32 Мбайт (2%)
Язык : Russian
Дата кодирования : UTC 2011-10-24 16:01:21
Дата пометки : UTC 2011-10-24 16:01:21
     
Other forum [Profile] [PM]

Tiger_Kitten

Longevity: 7 years 1 month

Posts: 7

Торрент-статистика

Post 25-Aug-2013 00:40 (after 9 months 16 days)

[Quote]

ребята, дайте скачать!
Other forum [Profile] [PM]
Similar theme
Forum Topic Author Torrent Replies Last Post
./templates/default/images/folder_dl.gif Медицина и Здоровье Александр Шишкин | Массаж за 20 минут. Экспресс-курс для начинающих (2015) [FB2] Omen
1 | 0

0 | 1163

13

2015-09-01 18:52
Omen Latest
Display posts from previous:    
Reply to topic

The time now is: Today 06:35

All times are GMT + 3 Hours



You cannot post new topics in this forum
You cannot reply to topics in this forum
You cannot edit your posts in this forum
You cannot delete your posts in this forum
You cannot vote in polls in this forum
You cannot attach files in this forum
You cannot download files in this forum