Today is a free download without charge Download

Доказательства вины. Лекарство от всего (2012) SATRip

Reply to topic
 
Author
Message

Koralina ®

Longevity: 10 years

Posts: 994

Location: Lithuania

Торрент-статистика

Post 07-Nov-2012 20:35

[Quote]

Доказательства вины. Лекарство от всего (2012) SATRip -
Режиссер / Телекомпания: ТВЦ
Русское название: Доказательства вины
Год выпуска: 2012
Жанр: Телепередача
Описание:
Таблетки для стройности, "кремлёвские" пилюли, эликсиры "мужской силы" и женской неотразимости, лечебные трусы, которые можно носить на голове... Каких только чудо-препаратов и аппаратов не существует! Они обещают волшебное исцеление от любой болезни. Герои нового выпуска программы "Доказательства вины" - люди, которые поверили в сказку, потратили баснословные суммы, а теперь смеются сквозь слёзы. Хотите узнать, как вас могут обмануть и в какие чудеса точно не стоит верить - смотрите наше программу!
Ведущий: Дарья Мацкевич
Продолжительность: ~ 00:36:10
Видеокодек: XviD
Качество видео: SATRip
Битрейт видео: ~1486 kb/s
Размер кадра: 720 x 448
Аудиокодек: MP3
Битрейт аудио: 128 kb/s

MediaInfo

Формат : AVI
Формат/Информация : Audio Video Interleave
Размер файла : 420 Мбайт
Продолжительность : 36 м.
Общий поток : 1623 Кбит/сек
Программа кодирования : VirtualDubModRus 1.5.10.2 (build 2542/release)
Библиотека кодирования : VirtualDubMod build 2542/release
Видео
Идентификатор : 0
Формат : MPEG-4 Visual
Профиль формата : Advanced [email protected]
Параметр BVOP формата : 2
Параметр QPel формата : Нет
Параметр GMC формата : Без точки перехода
Параметр матрицы формата : Default (MPEG)
Режим смешивания : Сжатый битовый поток
Идентификатор кодека : XVID
Идентификатор кодека/Подсказка : XviD
Продолжительность : 36 м.
Битрейт : 1486 Кбит/сек
Ширина : 720 пикселей
Высота : 448 пикселей
Соотношение сторон : 1,607
Частота кадров : 25,000 кадров/сек
Цветовое пространство : YUV
Субдискретизация насыщенности : 4:2:0
Битовая глубина : 8 бит
Тип развёртки : Прогрессивная
Метод сжатия : С потерями
Бит/(Пиксели*Кадры) : 0.184
Размер потока : 384 Мбайт (92%)
Библиотека кодирования : XviD 1.2.1 (UTC 2008-12-04)
Аудио
Идентификатор : 1
Формат : MPEG Audio
Версия формата : Version 1
Профиль формата : Layer 3
Режим : Joint stereo
Идентификатор кодека : 55
Идентификатор кодека/Подсказка : MP3
Продолжительность : 36 м.
Вид битрейта : Постоянный
Битрейт : 128 Кбит/сек
Каналы : 2 канала
Частота : 48,0 КГц
Метод сжатия : С потерями
Размер потока : 33,1 Мбайт (8%)
Выравнивание : Соединение по промежуткам
Продолжительность промежутка : 40 мс. (1,00 видеокадр)
Время предзагрузки промежутка : 504 мс.
Библиотека кодирования : LAME3.90.3
Скриншоты:          

_________________
Other forum [Profile] [PM]
Display posts from previous:    
Reply to topic

The time now is: Today 15:24

All times are GMT + 3 Hours



You cannot post new topics in this forum
You cannot reply to topics in this forum
You cannot edit your posts in this forum
You cannot delete your posts in this forum
You cannot vote in polls in this forum
You cannot attach files in this forum
You cannot download files in this forum