Today is a free download without charge Download

Кокни против зомби / Cockneys vs Zombies ( Матиас Хоен)(2012, Великобритания, Tea Shop & Film Company, Ужасы, комедия) BDRip

Reply to topic
 
Author
Message

Koralina ®

Longevity: 9 years 9 months

Posts: 994

Location: Lithuania

Торрент-статистика

Post 07-Nov-2012 15:48

[Quote]

Кокни против зомби / Cockneys vs Zombies (2012) BDRip-
Русское название: Кокни против зомби
Оригинальное название: Cockneys vs Zombies
Год выпуска: 2012
Жанр: Ужасы, комедия
Производство: Великобритания, Tea Shop & Film Company
Перевод: Любительский двухголосый
Озвучка / Автор перевода: Полина Касаткина и Сергей Калугин / Алёна Иванова (ст. "Райдо")
Режиссер: Матиас Хоен
Актеры: Мишель Райан, Джорджия Кинг, Алан Форд, Онор Блэкман, Ли Асквит-Коу, Гарри Тредэвэй, Фордхэм Сьюзэн, Ричард Брирс, Тони Гарднер, Расмус Хардайкер, Крис Соммервиль, Доминик Бёрнс, Джек Дулан, Дадли Саттон, Джорджина Хейл, Баши, Даниэль Брент, Тони Шелби, Ли Николас Харрис, Шон Лукас, Джош Коул, Джоан Ходжес, Даррен Шон Энрайт, Марта Грэйс, Шон Сернов, Колин Берт Видлер, Элизабет Уэбстер, Терри Шиптон, Джоаччино Джим Куффаол, Гари Свон, Дэвид Лиддон, Крис Найт, Хлоя Патридж, Даррен Лакин, Филип Харви, Стюарт Бэйли, Форд Джим, Крэйг Леонард, Скотт Брэдли, Джордж Хилтон, Пол Дрэйпер, Бен Чэмберс, Алекс Скривен
Описание фильма:
Наступающая застройка в Восточном Лондоне нарушает покой древней могилы зомби, освобождая потоки нежити. Наши молодые герои — новая более жесткая версия кокни — худые, агрессивные и аморальные; банда грабителей банков прорывается сквозь толпы зомби.

Дата мировой премьеры: 23 августа 2012
Продолжительность: 01:28:22
Качество видео: BDRip
Видеокодек: DivX 5
Битрейт видео: ~1904 Кбит/сек
Размер кадра: 720x352
Аудио: (AC3, 6 ch) 448 Кбит/с - Русский

MediaInfo

Общее
Полное имя : K:\Up\кино\Кокни против зомби\Kokni protiv zombi.nnm. 2012.avi
Формат : AVI
Формат/Информация : Audio Video Interleave
Размер файла : 1,46 Гбайт
Продолжительность : 1 ч. 28 м.
Общий поток : 2362 Кбит/сек
Программа кодирования : VirtualDubMod 1.5.10.2 (build 2540/release)
Библиотека кодирования : VirtualDubMod build 2540/release
Видео
Идентификатор : 0
Формат : MPEG-4 Visual
Профиль формата : Advanced [email protected]
Параметр BVOP формата : 1
Параметр QPel формата : Нет
Параметр GMC формата : Без точки перехода
Параметр матрицы формата : Default (H.263)
Режим смешивания : Сжатый битовый поток
Идентификатор кодека : DX50
Идентификатор кодека/Подсказка : DivX 5
Продолжительность : 1 ч. 28 м.
Битрейт : 1904 Кбит/сек
Ширина : 720 пикселей
Высота : 352 пикселя
Соотношение сторон : 2,045
Частота кадров : 23,976 кадра/сек
Цветовое пространство : YUV
Субдискретизация насыщенности : 4:2:0
Битовая глубина : 8 бит
Тип развёртки : Прогрессивная
Метод сжатия : С потерями
Бит/(Пиксели*Кадры) : 0.298
Размер потока : 1,12 Гбайт (77%)
Библиотека кодирования : XviD 1.2.1 (UTC 2008-12-04)
Аудио
Идентификатор : 1
Формат : AC-3
Формат/Информация : Audio Coding 3
Расширение режима : CM (complete main)
Идентификатор кодека : 2000
Продолжительность : 1 ч. 28 м.
Вид битрейта : Постоянный
Битрейт : 448 Кбит/сек
Каналы : 6 каналов
Расположение каналов : Front: L C R, Side: L R, LFE
Частота : 48,0 КГц
Битовая глубина : 16 бит
Метод сжатия : С потерями
Размер потока : 283 Мбайт (19%)
Выравнивание : Разделение по промежуткам
Скриншоты:      
     

_________________
Other forum [Profile] [PM]
Display posts from previous:    
Reply to topic

The time now is: Today 04:26

All times are GMT + 3 Hours



You cannot post new topics in this forum
You cannot reply to topics in this forum
You cannot edit your posts in this forum
You cannot delete your posts in this forum
You cannot vote in polls in this forum
You cannot attach files in this forum
You cannot download files in this forum