Today is a free download without charge Download

Всего лишь поцелуй / Просто поцелуй / Just a kiss (Фишер Стивенс / Fisher Stevens) (2002, США, мелодрама, комедия, DVDRip)

Reply to topic
 
Author
Message

Koralina ®

Longevity: 9 years 9 months

Posts: 994

Location: Lithuania

Торрент-статистика

Post 07-Nov-2012 01:19

[Quote]

Всего лишь поцелуй / Просто поцелуй / Just a kiss
Русское название: Всего лишь поцелуй
Оригинальное название: Just a Kiss
Год выхода: 2002
Режиссер: Фишер Стивенс / Fisher Stevens
В ролях: Марли Шелтон, Рон Элдард, Патрик Брин, Sanjiv Jhaveri, Келли Коул, Кира Седжвик, Зои Колдуэлл, Мариса Томей, Питер Динклэйдж, Холлис Гранивиль’Дэнни
Страна производства: США
Продолжительность: 89 мин. / 01:29
Продюсер: Мэттью Х. Роулэнд, Долли Холл, Кэролайн Яцко
Сценарий: Патрик Брин
Жанр: мелодрама, комедия
Перевод: профессиональный (двухголосый)
Описание: Если ты молодой, привлекательный, успешный и одинокий обитатель Манхэттена, то твоя личная жизнь, скорее всего, будет похожа на кошмар. Романтический поцелуй и безмятежный брак до золотой свадьбы это сценарий для детских утренников. На самом деле поцелуй это первый шаг в постель, в другую жизнь, в чужие тайны, на враждебную территорию, в пропасть. Эту нехитрую истину предстоит постичь шестерым молодым людям, которые в результате поисков идеальной пары запутались в собственных плохо упорядоченных связях, так что теперь не каждый психоаналитик возьмется расплести этот кишащий страстями клубок. А ведь все начиналось с невинного поцелуя
Рейтинг MPAA: R - Лицам до 17 лет обязательно присутствие взрослого
Рейтинг IMDB:
Рейтинг Kinopoisk:
Качество: DVDRip
Формат видео: XviD
Формат аудио: AC3
Видео: XVID 704x384 23.98fps 1771Kbps
Аудио: Dolby AC3 48000Hz stereo 384Kbps

MediaInfo

Код:
General
Complete name                            : C:Users\007DesktopProsto.poceluy.2002.XviD.DVDRip.avi
Format                                   : AVI
Format/Info                              : Audio Video Interleave
File size                                : 1.37 GiB
Duration                                 : 1h 30mn
Overall bit rate                         : 2 163 Kbps
Writing application                      : VirtualDubMod 1.5.4.1 (build 2178/release)
Writing library                          : VirtualDubMod build 2178/release
Video
ID                                       : 0
Format                                   : MPEG-4 Visual
Format profile                           : Advanced [email protected]
Format settings, BVOP                    : No
Format settings, QPel                    : No
Format settings, GMC                     : No warppoints
Format settings, Matrix                  : Custom
Codec ID                                 : XVID
Codec ID/Hint                            : XviD
Duration                                 : 1h 30mn
Bit rate                                 : 1 772 Kbps
Width                                    : 704 pixels
Height                                   : 384 pixels
Display aspect ratio                     : 1.85:1
Frame rate                               : 23.976 fps
Color space                              : YUV
Chroma subsampling                       : 4:2:0
Bit depth                                : 8 bits
Scan type                                : Progressive
Compression mode                         : Lossy
Bits/(Pixel*Frame)                       : 0.273
Stream size                              : 1.12 GiB (82%)
Writing library                          : XviD 1.0.0 (UTC 2004-05-09)
Audio
ID                                       : 1
Format                                   : AC-3
Format/Info                              : Audio Coding 3
Format profile                           : Dolby Digital
Mode extension                           : CM (complete main)
Format settings, Endianness              : Big
Codec ID                                 : 2000
Duration                                 : 1h 30mn
Bit rate mode                            : Constant
Bit rate                                 : 384 Kbps
Channel(s)                               : 2 channels
Channel positions                        : Front: L R
Sampling rate                            : 48.0 KHz
Bit depth                                : 16 bits
Compression mode                         : Lossy
Stream size                              : 249 MiB (18%)
Alignment                                : Split accross interleaves
Interleave, duration                     : 96 ms (2.30 video frames)
Interleave, preload duration             : 96 ms
Language                                 : Russian

Скриншоты

             

_________________
Other forum [Profile] [PM]
Similar theme
Forum Topic Author Torrent Replies Last Post
./templates/default/images/folder_dl.gif Медицина и Здоровье В. Усманов | Рецепты со всего света [2000] [PDF] sashau
0 | 1

0 | 1045

7

2012-11-22 18:34
sashau Latest
Display posts from previous:    
Reply to topic

The time now is: Today 15:43

All times are GMT + 3 Hours



You cannot post new topics in this forum
You cannot reply to topics in this forum
You cannot edit your posts in this forum
You cannot delete your posts in this forum
You cannot vote in polls in this forum
You cannot attach files in this forum
You cannot download files in this forum