Today is a free download without charge Download

Охотник на монстров / Monster Hunter (Пол У. С. Андерсон) [2020 г., фэнтези, боевик, приключения, HDRip] DUB (Чистый звук)

Reply to topic
DL-List and Torrent activity
Size:  1.46 GB   |    Registered:  7 days   |    Completed:  0 times
Seeders:  1  [  0 KB/s  ]   Show peers in full details
 
 
 
 
Author
Message

Theseus ®

Gender:

Longevity: 9 years 8 months

Posts: 2146

Торрент-статистика

Post 21-Feb-2021 13:39

[Quote]

Охотник на монстров / Monster Hunter-Год выхода: 2020
Страна: США, Китай, Германия, Япония
Жанр: фэнтези, боевик, приключения
Продолжительность: 01:43:08
Перевод: Профессиональный дублированный | Чистый звук
Субтитры: Русские (2 x Forced, full) | внешние-Режиссер: Пол У. С. Андерсон-В ролях: Милла Йовович, Тони Джа, Джош Хелман, Ти-Ай, Джин О-Юн, Миган Гуд, Николас Расенти, Рон Перлман, Диего Бонета, Хирона Ямадзаки-О фильме: Параллельно нашему миру существует иной: мир, где правят крайне опасные и наделенные невероятной силой монстры, яростно оберегающие свои владения от чужаков. Именно сюда через пространственный портал попадают лейтенант Артемис и ее отряд элитных бойцов. И теперь им предстоит проверить себя на прочность перед лицом невиданной ранее угрозы. В попытке выжить и найти дорогу домой, Артемис объединяет силы с таинственным Охотником, который научился выживать в этих враждебных землях. Вместе героям предстоит вступить в беспощадную схватку с монстрами, не знающими страха и жалости.- -Качество: HDRip
Формат: AVI
Видео кодек: XviD
Аудио кодек: AC3
Видео: MPEG4, XviD, 720x304 (2.35:1), 23.976 fps, 1 827 kb/s
Аудио: AC3, 48.0 kHz, 2 ch, 192 kb/s-Рекламы нет | Сэмпл-Релиз - Theseus-

MI

Код:
General
Complete name                            : Monster.Hunter.2020.HDRip.avi
Format                                   : AVI
Format/Info                              : Audio Video Interleave
File size                                : 1.46 GiB
Duration                                 : 1 h 43 min
Overall bit rate                         : 2 030 kb/s
Video
ID                                       : 0
Format                                   : MPEG-4 Visual
Format profile                           : Advanced [email protected]
Format settings                          : BVOP2 / Custom Matrix
Format settings, BVOP                    : 2
Format settings, QPel                    : No
Format settings, GMC                     : No warppoints
Format settings, Matrix                  : Custom
Codec ID                                 : XVID
Codec ID/Hint                            : XviD
Duration                                 : 1 h 43 min
Bit rate                                 : 1 827 kb/s
Width                                    : 720 pixels
Height                                   : 304 pixels
Display aspect ratio                     : 2.35:1
Frame rate                               : 23.976 (24000/1001) FPS
Color space                              : YUV
Chroma subsampling                       : 4:2:0
Bit depth                                : 8 bits
Scan type                                : Progressive
Compression mode                         : Lossy
Bits/(Pixel*Frame)                       : 0.348
Stream size                              : 1.32 GiB (90%)
Writing library                          : XviD 69
Audio
ID                                       : 1
Format                                   : AC-3
Format/Info                              : Audio Coding 3
Commercial name                          : Dolby Digital
Codec ID                                 : 2000
Duration                                 : 1 h 43 min
Bit rate mode                            : Constant
Bit rate                                 : 192 kb/s
Channel(s)                               : 2 channels
Channel layout                           : L R
Sampling rate                            : 48.0 kHz
Frame rate                               : 31.250 FPS (1536 SPF)
Bit depth                                : 16 bits
Compression mode                         : Lossy
Stream size                              : 142 MiB (9%)
Alignment                                : Aligned on interleaves
Interleave, duration                     : 32  ms (0.77 video frame)
Service kind                             : Complete Main

Трейлер

-    - -
[darkos.me].t344329.torrent 
Torrent: Registered   [ 2021-02-21 13:39 ]

Download

59 KB

Воспроизвести онлайн

Status: checked
Completed: 0 times
Size: 1.46 GB, InfoHash (Google it!)
Score:  5 (vote: 4)
Default: 2  Thank you   (list)
 

_________________
Other forum [Profile] [PM]
Similar theme
Forum Topic Author Torrent Replies Last Post
./templates/default/images/folder_dl.gif Приключения и квесты Mystery Trackers: Blackrow\'s Secret Collector\'s Edition / Охотники за тайнами. Загадка рода Блэкроу. Коллекционное издание [P] [RUS / ENG] (2014) Omen
2 | 0

0 | 2551

27

2015-06-06 00:09
Omen Latest
./templates/default/images/folder_dl.gif Фильмы 2011-2020 Охотник на монстров / Monster Hunter (2020) WEB-DL [H.264/1080p] AVO (BadBajo) }{@R0N
1 | 0

0 | 280

0

2021-02-16 20:36
}{@R0N Latest
./templates/default/images/folder_dl.gif Новинки (BD|HDTV|DVD) Охотник на монстров / Monster Hunter (Пол У. С. Андерсон) [2020 г., фэнтези, боевик, приключения, BDRip 720p] DUB (Чистый звук) | AVO (BadBajo) | AVO (Дольский) | MVO (HDRezka studio) Theseus
1 | 0

0 | 816

0

2021-02-21 13:43
Theseus Latest
Display posts from previous:    
Reply to topic

The time now is: Today 17:03

All times are GMT + 3 Hours



You cannot post new topics in this forum
You cannot reply to topics in this forum
You cannot edit your posts in this forum
You cannot delete your posts in this forum
You cannot vote in polls in this forum
You cannot attach files in this forum
You can download files in this forum