Today is a free download without charge Download

Довод / Tenet (Кристофер Нолан) [2020 г., Фантастика, боевик, WEBRip] DUB (Чистый звук)

Reply to topic
 
Author
Message

Theseus ®

Gender:

Longevity: 9 years 7 months

Posts: 2140

Торрент-статистика

Post 30-Nov-2020 15:12

[Quote]

Довод / Tenet- Год выхода: 2020
Страна: Великобритания, США
Жанр: Фантастика, боевик
Продолжительность: 02:29:44
Перевод: Профессиональный (дублированный) | Чистый звук
Субтитры: Отсутствуют-Режиссер: Кристофер Нолан-В ролях: Джон Дэвид Вашингтон, Роберт Паттинсон, Элизабет Дебики, Кеннет Брана, Аарон Тейлор-Джонсон, Клеманс Поэзи, Фиона Дуриф, Майкл Кейн, Химеш Патель, Эндрю Ховард-О фильме: После теракта в киевском оперном театре агент ЦРУ объединяется с британской разведкой, чтобы противостоять русскому олигарху, который сколотил состояние на торговле оружием. Для этого агенты используют инверсию времени, заставляющую уже произошедшие события идти вспять.- -Качество: WEBRip
Формат: AVI
Видео кодек: XviD
Аудио кодек: MP3
Видео: MPEG4, XviD, 704x320, 23.976 fps, 1 260 kb/s
Аудио: MP3, 48.0 kHz, 2 ch, 128 kb/s-Рекламы нет | Сэмпл-

MI

Код:
Общее
Полное имя                               : Tenet_2020_HDRip_Line_by_Dalemake.avi
Формат                                   : AVI
Формат/Информация                        : Audio Video Interleave
Размер файла                             : 1,46 Гбайт
Продолжительность                        : 2 ч. 29 м.
Общий поток                              : 1 397 Кбит/сек
Программа кодирования                    : VirtualDubMod 1.5.10.3 | (build 2550/release)
Библиотека кодирования                   : VirtualDubMod build 2550/release
Видео
Идентификатор                            : 0
Формат                                   : MPEG-4 Visual
Профиль формата                          : Advanced [email protected]
Настройки формата                        : BVOP1 / Custom Matrix
Параметр BVOP формата                    : 1
Параметр QPel формата                    : Нет
Параметр GMC формата                     : Без точки перехода
Параметр матрицы формата                 : Выборочная
Идентификатор кодека                     : XVID
Идентификатор кодека/Подсказка           : XviD
Продолжительность                        : 2 ч. 29 м.
Битрейт                                  : 1 260 Кбит/сек
Ширина                                   : 704 пикселя
Высота                                   : 320 пикселей
Соотношение сторон                       : 2,2:1
Частота кадров                           : 23,976 (24000/1001) кадра/сек
Частота кадров в оригинале               : 23,976 (23976/1000) кадра/сек
Цветовое пространство                    : YUV
Субдискретизация насыщенности            : 4:2:0
Битовая глубина                          : 8 бит
Тип развёртки                            : Прогрессивная
Метод сжатия                             : С потерями
Бит/(Пиксели*Кадры)                      : 0.233
Размер потока                            : 1,32 Гбайт (90%)
Библиотека кодирования                   : XviD 69
Аудио
Идентификатор                            : 1
Формат                                   : MPEG Audio
Версия формата                           : Version 1
Профиль формата                          : Layer 3
Идентификатор кодека                     : 55
Идентификатор кодека/Подсказка           : MP3
Продолжительность                        : 2 ч. 29 м.
Вид битрейта                             : Постоянный
Битрейт                                  : 128 Кбит/сек
Каналы                                   : 2 канала
Частота                                  : 48,0 КГц
Частота кадров                           : 41,667 кадра/сек (1152 SPF)
Метод сжатия                             : С потерями
Размер потока                            : 137 Мбайт (9%)
Выравнивание                             : Соединение по промежуткам
Продолжительность промежутка             : 42  мс. (1,00 видеокадр)
Время предзагрузки промежутка            : 504  мс.
Библиотека кодирования                   : LAME3.99r
Настройки программы                      : -m s -V 4 -q 2 -lowpass 17 -b 128

Трейлер

-    - -

_________________
Other forum [Profile] [PM]

Marcus Thor

Longevity: 5 years 10 months

Posts: 1

Торрент-статистика

Post 05-Jan-2021 22:02 (after 1 month 5 days)

[Quote]

Что такое DHT?
Other forum [Profile] [PM]
Display posts from previous:    
Reply to topic

The time now is: Today 22:21

All times are GMT + 3 Hours



You cannot post new topics in this forum
You cannot reply to topics in this forum
You cannot edit your posts in this forum
You cannot delete your posts in this forum
You cannot vote in polls in this forum
You cannot attach files in this forum
You cannot download files in this forum