Today is a free download without charge Download

Music Magic - One Man Lady (1981) 2005, Cool Sound [FLAC|Lossless|tracks + .cue] <Jazz-Funk>

Reply to topic
 
Author
Message

Soldat_5 ®

Longevity: 11 months 13 days

Posts: 148

Торрент-статистика

Post 17-Oct-2020 11:14

[Quote]

Music Magic - One Man Lady (1981) 2005, Cool Sound - Жанр: Jazz-Funk
Издание: Cool Sound - COOL-119
Источник: (релизёр:)souldade
Продолжительность: 00:37:39
Кодек: FLAC
Битрейт: Lossless
Тип рипа: tracks + .cue
Треклист:
01. Let's Jam (3:33)
02. One Man Lady (4:07)
03. Let's Get It Together (3:09)
04. I Wonder (4:40)
05. 222 (Triple Two) (4:35)
06. Sing (3:38)
07. Only Ours to Share (4:31)
08. Mr. Man (4:33)
09. Carnival (4:53)

Отчёт EAC&#58;

Exact Audio Copy V1.5 from 20. February 2020
EAC extraction logfile from 2. October 2020, 0:07
Music Magic / One Man Lady
Used drive : MATSHITADVD-RAM UJ-850S Adapter: 1 ID: 0
Read mode : Secure
Utilize accurate stream : Yes
Defeat audio cache : Yes
Make use of C2 pointers : No
Read offset correction : 102
Overread into Lead-In and Lead-Out : No
Fill up missing offset samples with silence : Yes
Delete leading and trailing silent blocks : No
Null samples used in CRC calculations : Yes
Used interface : Native Win32 interface for Win NT & 2000
Gap handling : Appended to previous track
Used output format : User Defined Encoder
Selected bitrate : 768 kBit/s
Quality : High
Add ID3 tag : No
Command line compressor : C:\Program Files (x86)\Exact Audio Copy\FLAC\FLAC.EXE
Additional command line options : -6 -V -T "ARTIST=%artist%" -T "TITLE=%title%" -T "ALBUM=%albumtitle%" -T "DATE=%year%" -T "TRACKNUMBER=%tracknr%" -T "GENRE=%genre%" -T "COMMENT=%comment%" -T "BAND=%albuminterpret%" -T "ALBUMARTIST=%albuminterpret%" -T "COMPOSER=%composer%" %haslyrics%--tag-from-file=LYRICS="%lyricsfile%"%haslyrics% -T "DISCNUMBER=%cdnumber%" -T "TOTALDISCS=%totalcds%" -T "TOTALTRACKS=%numtracks%" %hascover%--picture="%coverfile%"%hascover% %source% -o %dest%
TOC of the extracted CD
Track | Start | Length | Start sector | End sector
---------------------------------------------------------
1 | 0:00.00 | 3:33.01 | 0 | 15975
2 | 3:33.01 | 4:06.53 | 15976 | 34478
3 | 7:39.54 | 3:09.33 | 34479 | 48686
4 | 10:49.12 | 4:40.18 | 48687 | 69704
5 | 15:29.30 | 4:35.33 | 69705 | 90362
6 | 20:04.63 | 3:37.51 | 90363 | 106688
7 | 23:42.39 | 4:30.41 | 106689 | 126979
8 | 28:13.05 | 4:33.12 | 126980 | 147466
9 | 32:46.17 | 4:52.42 | 147467 | 169408
Track 1
Filename C:\Users\Mel\Desktop\Torrents\Music Magic - One Man Lady\01 Let's Jam.wav
Pre-gap length 0:00:02.00
Peak level 96.2 %
Extraction speed 1.4 X
Track quality 100.0 %
Test CRC 1E5E0AFF
Copy CRC 1E5E0AFF
Accurately ripped (confidence 1) [13BF985F] (AR v2)
Copy OK
Track 2
Filename C:\Users\Mel\Desktop\Torrents\Music Magic - One Man Lady\02 One Man Lady.wav
Peak level 96.6 %
Extraction speed 1.5 X
Track quality 100.0 %
Test CRC 327D5325
Copy CRC 327D5325
Accurately ripped (confidence 1) [8C729E81] (AR v2)
Copy OK
Track 3
Filename C:\Users\Mel\Desktop\Torrents\Music Magic - One Man Lady\03 Let's Get It Together.wav
Peak level 96.6 %
Extraction speed 1.6 X
Track quality 100.0 %
Test CRC 7EBD0418
Copy CRC 7EBD0418
Accurately ripped (confidence 1) [67DD7398] (AR v2)
Copy OK
Track 4
Filename C:\Users\Mel\Desktop\Torrents\Music Magic - One Man Lady\04 I Wonder.wav
Peak level 96.5 %
Extraction speed 1.9 X
Track quality 100.0 %
Test CRC DD33FCD3
Copy CRC DD33FCD3
Accurately ripped (confidence 1) [89E0976E] (AR v2)
Copy OK
Track 5
Filename C:\Users\Mel\Desktop\Torrents\Music Magic - One Man Lady\05 222 (Triple Two).wav
Peak level 93.3 %
Extraction speed 2.0 X
Track quality 100.0 %
Test CRC CC98FC37
Copy CRC CC98FC37
Accurately ripped (confidence 1) [6144CCE5] (AR v2)
Copy OK
Track 6
Filename C:\Users\Mel\Desktop\Torrents\Music Magic - One Man Lady\06 Sing.wav
Peak level 96.6 %
Extraction speed 2.1 X
Track quality 100.0 %
Test CRC 13895C45
Copy CRC 13895C45
Accurately ripped (confidence 1) [1BA88A30] (AR v2)
Copy OK
Track 7
Filename C:\Users\Mel\Desktop\Torrents\Music Magic - One Man Lady\07 Only Ours To Share.wav
Peak level 96.6 %
Extraction speed 2.0 X
Track quality 99.9 %
Test CRC 6EA7AC18
Copy CRC 6EA7AC18
Accurately ripped (confidence 1) [CD53AC0B] (AR v2)
Copy OK
Track 8
Filename C:\Users\Mel\Desktop\Torrents\Music Magic - One Man Lady\08 Mr. Man.wav
Peak level 100.0 %
Extraction speed 2.3 X
Track quality 100.0 %
Test CRC 3C4565AD
Copy CRC 3C4565AD
Accurately ripped (confidence 1) [A68E22BD] (AR v2)
Copy OK
Track 9
Filename C:\Users\Mel\Desktop\Torrents\Music Magic - One Man Lady\09 Carnival.wav
Peak level 94.5 %
Extraction speed 2.5 X
Track quality 100.0 %
Test CRC 478DD26B
Copy CRC 478DD26B
Accurately ripped (confidence 1) [F7E7FFC5] (AR v2)
Copy OK
All tracks accurately ripped
No errors occurred
End of status report
---- CUETools DB Plugin V2.1.6
[CTDB TOCID: 5ZeJf40bosSrD39JEbMwir5.N3k-] found
Submit result: already submitted
Track | CTDB Status
1 | (4/4) Accurately ripped
2 | (4/4) Accurately ripped
3 | (4/4) Accurately ripped
4 | (4/4) Accurately ripped
5 | (4/4) Accurately ripped
6 | (4/4) Accurately ripped
7 | (4/4) Accurately ripped
8 | (4/4) Accurately ripped
9 | (4/4) Accurately ripped
==== Log checksum A5F19A7877047F5BBDCCB7BCC7B79D9F71D07DA38B6BFA9004CE599409B04C8A ====
Other forum [Profile] [PM]
Display posts from previous:    
Reply to topic

The time now is: Today 19:55

All times are GMT + 3 Hours



You cannot post new topics in this forum
You cannot reply to topics in this forum
You cannot edit your posts in this forum
You cannot delete your posts in this forum
You cannot vote in polls in this forum
You cannot attach files in this forum
You cannot download files in this forum