Today is a free download without charge Download

Поезд в Пусан 2: Полуостров / Bando / Train to Busan 2 (Ён Сан-хо) [2020 г., Ужасы, боевик, WEB-DL 720p] DUB (Чистый звук)

Reply to topic
 
Author
Message

Theseus ®

Gender:

Longevity: 9 years 6 months

Posts: 2135

Торрент-статистика

Post 26-Aug-2020 21:31

[Quote]

Поезд в Пусан 2: Полуостров / Bando / Train to Busan 2- Год выхода: 2020
Страна: Корея Южная
Жанр: Ужасы, боевик
Продолжительность: 01:55:44
Перевод: Дублированный (Чистый звук)
Субтитры: Корейские (вшитые форс.)-Режиссер: Ён Сан-хо-В ролях: Кан Дон-вон, Ли Джон-хён, Ли Рэ, Квон Хэ-хё, Ким Мин-джэ, Ку Гё-хван, Ким До-юн, Ли Е-вон, Хван Ён-хи, Ким Чхоль-юн-О фильме: Через четыре года после вспышки страшного вируса, распространение которого Южная Корея сдержать не смогла, то, что осталось от страны, находится в блокаде, а полчища зомби разгуливают по всему полуострову. Бывший военный Хан Джон-сок, в своё время сумевший эвакуироваться, в составе небольшого отряда отправляется из Гонконга в закрытую зону, чтобы отыскать грузовик с деньгами. Ему предстоит пробираться по жуткому миру, где помимо означенной угрозы опасность представляют и люди, устраивающие жестокие игры на выживание.- -Качество: WEB-DL 720p
Формат: MKV
Видео кодек: x.264
Аудио кодек: AC3
Видео: AVC, 1280x536 (2.40:1), 23.976 fps, 5 357 kb/s
Аудио: AC3, 48.0 kHz, 2 ch, 192 kb/s-Сэмпл-Присутствует баннер, звуковая реклама- -

MediaInfo

Код:
Общее
Уникальный идентификатор                 : 240080567038441004889101809256106474511 (0xB49DD5D709E7DB108A69724AEED6BC0F)
Полное имя                               : Train to Busan 2.(2020).Line.WEB-DL.720p.mkv
Формат                                   : Matroska
Версия формата                           : Version 4
Размер файла                             : 4,47 Гбайт
Продолжительность                        : 1 ч. 55 м.
Режим общего битрейта                    : Переменный
Общий поток                              : 5551 Кбит/сек
Дата кодирования                         : UTC 2020-08-26 18:09:39
Программа кодирования                    : mkvmerge v8.3.0 ('Over the Horizon') 64bit
Библиотека кодирования                   : libebml v1.3.1 + libmatroska v1.4.2
Видео
Идентификатор                            : 1
Формат                                   : AVC / AVC
Формат/Информация                        : Advanced Video Codec
Профиль формата                          : [email protected] / [email protected]
Настройки формата                        : CABAC / 4 Ref Frames / CABAC / 5 Ref Frames
Параметр CABAC формата                   : Да / Да
Параметр RefFrames формата               : 4 кадра / 5 кадров
Параметр GOP формата                     : M=1, N=25 / M=1, N=25
Идентификатор кодека                     : V_MPEG4/ISO/AVC
Продолжительность                        : 1 ч. 55 м.
Вид битрейта                             : Переменный
Битрейт                                  : 5357 Кбит/сек
Максимальный битрейт                     : 6000 Кбит/сек
Ширина                                   : 1280 пикселей
Ширина оригинала                         : 1280 пикселей / 1280 пикселей
Высота                                   : 536 пикселей
Высота оригинала                         : 536 пикселей / 536 пикселей
Соотношение сторон                       : 2,40:1
Режим частоты кадров                     : Переменный
Частота кадров                           : 23,976 (23976/1000) кадра/сек
Частота кадров в оригинале               : 23,976 (24000/1001) кадра/сек
Стандарт вещания                         : Component
Цветовое пространство                    : YUV
Субдискретизация насыщенности            : 4:2:0 / 4:2:0
Битовая глубина                          : 8 бит / 8 бит
Тип развёртки                            : Прогрессивная / Progressive
Бит/(Пиксели*Кадры)                      : 0.326
Размер потока                            : 4,32 Гбайт (97%)
Default                                  : Да
Forced                                   : Нет
Цветовой диапазон                        : Limited
Основные цвета                           : BT.709
Характеристики трансфера                 : BT.709
Коэффициенты матрицы                     : BT.709
Аудио
Идентификатор                            : 2
Формат                                   : AC-3
Формат/Информация                        : Audio Coding 3
Коммерческое название                    : Dolby Digital
Идентификатор кодека                     : A_AC3
Продолжительность                        : 1 ч. 55 м.
Вид битрейта                             : Постоянный
Битрейт                                  : 192 Кбит/сек
Каналы                                   : 2 канала
Channel layout                           : L R
Частота                                  : 48,0 КГц
Частота кадров                           : 31,250 кадров/сек (1536 SPF)
Битовая глубина                          : 16 бит
Метод сжатия                             : С потерями
Размер потока                            : 158 Мбайт (3%)
Заголовок                                : DUB (Line)
Язык                                     : Russian
ServiceKind/String                       : Complete Main
Default                                  : Да
Forced                                   : Нет

Трейлер

-    - -

_________________
Other forum [Profile] [PM]
Display posts from previous:    
Reply to topic

The time now is: Today 17:38

All times are GMT + 3 Hours



You cannot post new topics in this forum
You cannot reply to topics in this forum
You cannot edit your posts in this forum
You cannot delete your posts in this forum
You cannot vote in polls in this forum
You cannot attach files in this forum
You cannot download files in this forum