Today is a free download without charge Download

Чужая Земля / Приливы / Tides / The Colony (Тим Фельбаум / Tim Fehlbaum) [2021, Германия, фантастика, триллер, HDRip] Dub (IVI) + Sub (Eng) + Original Eng

Reply to topic
 
Author
Message

K15 ®

Gender:

Longevity: 26 days

Posts: 21

Торрент-статистика

Post 21-Nov-2021 17:41

[Quote]

Чужая Земля / Приливы / Tides / The Colony
Страна: Германия
Жанр: фантастика, триллер
Год выпуска: 2021
Продолжительность: 01:44:31-Перевод: Профессиональный (дублированный) | IVI
Субтитры: английские
Оригинальная аудиодорожка: английский-Режиссер: Тим Фельбаум / Tim Fehlbaum-В ролях: Нора Арнезедер, Сара-Софи Бусснина, Иэн Глен, Сопе Дирису, Йоэль Басман, Себастьян Роше, Белла Бадинг, Хонг Бергхоф, Луна Мвези, Николя Перо-Описание: После глобальной катастрофы на Земле выжившие люди переселяются на космическую колонию в системе Кеплера. Годы спустя они начинают отправлять на Землю космонавтов, чтобы определить, появились ли на планете условия для жизни. Прибыв во второй из таких экспедиций астронавт Луиза Блейк выясняет, что несмотря на постоянные приливы уничтожающие и без того скудную пищу, на Земле всё таки имеются выжившие, однако их сообщества постоянную борьбу за ресурсы. Вскоре она ей открывается страшная тайна первой экспедиции, в которой участвовал её отец и девушка оказывается перед решением, которое может стать роковым как для заброшенной планеты, так и для всего человечества.- -Качество видео: HDRip
Формат видео: AVI
Видео: 720x304 (2.37:1), 23.976 fps, XviD build 73 ~2141 kbps avg, 0.41 bit/pixel
Аудио 1: 48 kHz, AC3 Dolby Digital, 3/2 (L,C,R,l,r) + LFE ch, ~384 kbps | RUS
Аудио 2: 48 kHz, AC3 Dolby Digital, 3/2 (L,C,R,l,r) + LFE ch, ~448 kbps | ENG-

MediaInfo

Код:
Формат : AVI
Формат/Информация : Audio Video Interleave
Профиль формата : OpenDML
Размер файла : 2,18 Гбайт
Продолжительность : 1 ч. 44 м.
Общий поток : 2 980 Кбит/сек
Название фильма : Чужая Земля_2021_HDRip
Программа кодирования : VirtualDubMod 1.5.10.2 (build 2542/release)
Авторское право : порошков
Видео
Идентификатор : 0
Формат : MPEG-4 Visual
Профиль формата : Advanced [email protected]
Настройки формата : BVOP1 / Custom Matrix
Параметр BVOP формата : 1
Параметр QPel формата : Нет
Параметр GMC формата : Без точки перехода
Параметр матрицы формата : Выборочная
Идентификатор кодека : XVID
Идентификатор кодека/Подсказка : XviD
Продолжительность : 1 ч. 44 м.
Битрейт : 2 130 Кбит/сек
Ширина : 720 пикселей
Высота : 304 пикселя
Соотношение сторон : 2,35:1
Частота кадров : 23,976 (24000/1001) кадра/сек
Цветовое пространство : YUV
Субдискретизация насыщенности : 4:2:0
Битовая глубина : 8 бит
Тип развёртки : Прогрессивная
Метод сжатия : С потерями
Бит/(Пиксели*Кадры) : 0.406
Размер потока : 1,56 Гбайт (71%)
Библиотека кодирования : XviD 73
Аудио #1
Идентификатор : 1
Формат : AC-3
Формат/Информация : Audio Coding 3
Коммерческое название : Dolby Digital
Идентификатор кодека : 2000
Продолжительность : 1 ч. 44 м.
Вид битрейта : Постоянный
Битрейт : 384 Кбит/сек
Каналы : 6 каналов
Channel layout : L R C LFE Ls Rs
Частота : 48,0 КГц
Частота кадров : 31,250 кадров/сек (1536 SPF)
Метод сжатия : С потерями
Размер потока : 287 Мбайт (13%)
Выравнивание : Разделение по промежуткам
Продолжительность промежутка : 42 мс. (1,00 видеокадр)
Время предзагрузки промежутка : 500 мс.
Заголовок : rus
Service kind : Complete Main
Аудио #2
Идентификатор : 2
Формат : AC-3
Формат/Информация : Audio Coding 3
Коммерческое название : Dolby Digital
Идентификатор кодека : 2000
Продолжительность : 1 ч. 44 м.
Вид битрейта : Постоянный
Битрейт : 448 Кбит/сек
Каналы : 6 каналов
Channel layout : L R C LFE Ls Rs
Частота : 48,0 КГц
Частота кадров : 31,250 кадров/сек (1536 SPF)
Метод сжатия : С потерями
Размер потока : 335 Мбайт (15%)
Выравнивание : Разделение по промежуткам
Продолжительность промежутка : 42 мс. (1,00 видеокадр)
Время предзагрузки промежутка : 500 мс.
Заголовок : rus
Service kind : Complete Main

Скриншоты

     
Other forum [Profile] [PM]
Display posts from previous:    
Reply to topic

The time now is: Today 14:04

All times are GMT + 3 Hours



You cannot post new topics in this forum
You cannot reply to topics in this forum
You cannot edit your posts in this forum
You cannot delete your posts in this forum
You cannot vote in polls in this forum
You cannot attach files in this forum
You cannot download files in this forum