Today is a free download without charge Download

OTUS | Мониторинг и логирование: Zabbix, Prometheus, ELK . Часть 1/4 [H.264/720p-LQ] (2020) PCRec

Reply to topic
 
Author
Message

Clavik ®

Gender:

Longevity: 6 years 9 months

Posts: 2495

Location: Украина

Торрент-статистика

Post 24-Jul-2020 20:20

[Quote]

OTUS | Мониторинг и логирование: Zabbix, Prometheus, ELK . Часть 1/4 [H.264/720p-LQ] (2020) PCRec - Автор: OTUS
Жанр: Администрирование
Описание:
Никакого хаоса, никаких бессвязных метрик: после курса системные администраторы и devops-инженеры смогут правильно строить системы мониторинга и логирования, что позволит им более точно понимать текущее состояние всех систем и быстрее реагировать на инциденты.
На профессиональном уровне вы научитесь:
— строить сложные эффективные системы мониторинга и логирования инфраструктуры и приложений;
— следить за работой большого количества серверов и работать в связке Zabbix, Prometheus и Grafana;
— обеспечивать визуализацию метрик и настраивать оповещения о критически важных событиях.
Продолжительность: 15:30:39
Качество видео: PCRec
Видео: AVC/H.264, [email protected], ~201 Kbps
Аудио: AAC, 2 ch, 126 Kbps

MediaInfo:

Общее
Полное имя : [OTUS] Мониторинг и логирование - Zabbix, Prometheus, ELK . Часть 1 из 4 (2020)\1. Задачи мониторинга и алертинга\zoom.mp4
Формат : MPEG-4
Профиль формата : Base Media / Version 2
Идентификатор кодека : mp42 (isom/mp42)
Размер файла : 164 Мбайт
Продолжительность : 1 ч. 9 м.
Режим общего битрейта : Переменный
Общий поток : 329 Кбит/сек
Дата кодирования : UTC 2020-07-16 08:28:57
Дата пометки : UTC 2020-07-16 08:28:57
Видео
Идентификатор : 1
Формат : AVC
Формат/Информация : Advanced Video Codec
Профиль формата : [url=mailto:[email protected]][email protected][/url]
Настройки формата : CABAC / 3 Ref Frames
Параметр CABAC формата : Да
Параметр RefFrames формата : 3 кадра
Идентификатор кодека : avc1
Идентификатор кодека/Информация : Advanced Video Coding
Продолжительность : 1 ч. 9 м.
Битрейт : 201 Кбит/сек
Ширина : 1 280 пикселей
Высота : 720 пикселей
Соотношение сторон : 16:9
Режим частоты кадров : Постоянный
Частота кадров : 30,000 кадров/сек
Стандарт вещания : NTSC
Цветовое пространство : YUV
Субдискретизация насыщенности : 4:2:0
Битовая глубина : 8 бит
Тип развёртки : Прогрессивная
Бит/(Пиксели*Кадры) : 0.007
Размер потока : 100 Мбайт (61%)
Язык : English
Дата кодирования : UTC 2020-07-16 08:28:58
Дата пометки : UTC 2020-07-16 08:28:58
Цветовой диапазон : Limited
Codec configuration box : avcC
Аудио
Идентификатор : 2
Формат : AAC LC
Формат/Информация : Advanced Audio Codec Low Complexity
Идентификатор кодека : mp4a-40-2
Продолжительность : 1 ч. 9 м.
Вид битрейта : Переменный
Битрейт : 126 Кбит/сек
Максимальный битрейт : 345 Кбит/сек
Каналы : 2 канала
Channel layout : L R
Частота : 44,1 КГц
Частота кадров : 43,066 кадра/сек (1024 SPF)
Метод сжатия : С потерями
Размер потока : 62,7 Мбайт (38%)
Язык : English
Дата кодирования : UTC 2020-07-16 08:28:58
Дата пометки : UTC 2020-07-16 08:28:58
Скриншоты:
       

_________________


Other forum [Profile] [PM]
Display posts from previous:    
Reply to topic

The time now is: Today 14:58

All times are GMT + 3 Hours



You cannot post new topics in this forum
You cannot reply to topics in this forum
You cannot edit your posts in this forum
You cannot delete your posts in this forum
You cannot vote in polls in this forum
You cannot attach files in this forum
You cannot download files in this forum