Today is a free download without charge Download

Пушистые мошенники / Latte & The Magic Waterstone (Мими Мэйнард, Реджина Велкер, Нина Вельс) [2019, Мультфильм, комедия, приключения, семейный, BDRip 1080p] [GER Transfer] Dub (iTunes) + Original (GER) + Sub (Rus, Eng, Ger)

Reply to topic
 
Author
Message

Kon912 ®

Gender:

Longevity: 6 months 19 days

Posts: 510

Location: Питер

Торрент-статистика

Post 20-Jul-2020 23:30

[Quote]

Пушистые мошенники / Latte & The Magic Waterstone- Год выхода: 2019
Страна: Германия
Студия: Dreamin' Dolphin Film, Eagle Eye Filmproduktion, Grid Animation, Simonsays Pictures
Жанр: Мультфильм, комедия, приключения, семейный
Продолжительность: 01:21:55
Перевод: Профессиональный (полное дублирование) | iTunes-Режиссер:
Мими Мэйнард, Реджина Велкер, Нина Вельс-В ролях:
Луиза Вицорек, Тим Шварцмайер, Хеннинг Баум, Михаэль Дефферт, Эрик Сале, Тимур Бартельс, Регина Лемниц, Геральд Шаале-Описание:
Бельчонок Тьюм и дерзкая и бесстрашная ежиха Латте хотят похитить особенный бриллиант у короля медведей Бантура.
Придумывая разные уловки, они идут к своей цели, но главарь банды волков — Лупо и Рысь, пытаются им помешать и забрать камень себе.- -Качество: BDRip 1080p
Формат: MKV
Видео: MPEG-4 AVC, 1920x1040 (1,85:1), 10 000 Кbps avg, 23,976 fps
Аудио #01: 48 kHz, AC3, 5.1, 384 Kbps | iTunes | RUS
Аудио 2: 48 kHz, DTS, 5.1, 1509 Kbps | Original | GER |
Субтитры: Русские (Forced), английские (Forced), немецкие (Full)-

Инфо-файл

Общее
Уникальный идентификатор : 175037055159320602588973426234238911531 (0x83AEE91C7BB4E8C056AB6685C0CB442B)
Полное имя : Latte.igel.und.der.magische.wasserstein.2019.iT.1080p.BDRip.x264.mkv
Формат : Matroska
Версия формата : Version 4
Размер файла : 6,80 Гбайт
Продолжительность : 1 ч. 21 м.
Общий поток : 11,9 Мбит/сек
Название фильма : Пушистые мошенники / Latte & The Magic Waterstone (2019)
Дата кодирования : UTC 2020-07-17 10:29:58
Программа кодирования : mkvmerge v47.0.0 ('Black Flag') 64-bit
Библиотека кодирования : libebml v1.3.10 + libmatroska v1.5.2
Обложка : Yes
Attachments : cover.jpg
Видео
Идентификатор : 1
Формат : AVC
Формат/Информация : Advanced Video Codec
Профиль формата : [email protected]
Настройки формата : CABAC / 5 Ref Frames
Параметр CABAC формата : Да
Параметр RefFrames формата : 5 кадров
Идентификатор кодека : V_MPEG4/ISO/AVC
Продолжительность : 1 ч. 21 м.
Битрейт : 10 000 Кбит/сек
Ширина : 1 920 пикселей
Высота : 1 040 пикселей
Соотношение сторон : 1,85:1
Режим частоты кадров : Постоянный
Частота кадров : 23,976 (24000/1001) кадра/сек
Цветовое пространство : YUV
Субдискретизация насыщенности : 4:2:0
Битовая глубина : 8 бит
Тип развёртки : Прогрессивная
Бит/(Пиксели*Кадры) : 0.209
Размер потока : 5,71 Гбайт (84%)
Заголовок : #stillet
Библиотека кодирования : x264 core 152 r2851bm ba24899
Настройки программы : cabac=1 / ref=5 / deblock=1:-3:-3 / analyse=0x3:0x113 / me=umh / subme=10 / psy=1 / psy_rd=1.00:0.15 / mixed_ref=1 / me_range=32 / chroma_me=1 / trellis=2 / 8x8dct=1 / cqm=0 / deadzone=21,11 / fast_pskip=0 / chroma_qp_offset=-3 / threads=12 / lookahead_threads=3 / sliced_threads=0 / nr=0 / decimate=0 / interlaced=0 / bluray_compat=0 / constrained_intra=0 / bframes=10 / b_pyramid=2 / b_adapt=2 / b_bias=0 / direct=3 / weightb=1 / open_gop=0 / weightp=2 / keyint=240 / keyint_min=23 / scenecut=40 / intra_refresh=0 / rc_lookahead=40 / rc=2pass / mbtree=0 / bitrate=10000 / ratetol=1.0 / qcomp=0.60 / qpmin=0 / qpmax=69 / qpstep=4 / cplxblur=20.0 / qblur=0.5 / vbv_maxrate=50000 / vbv_bufsize=62500 / nal_hrd=none / filler=0 / ip_ratio=1.40 / pb_ratio=1.30 / aq=1:1.00
Язык : English
Default : Да
Forced : Нет
Аудио #1
Идентификатор : 2
Формат : AC-3
Формат/Информация : Audio Coding 3
Коммерческое название : Dolby Digital
Идентификатор кодека : A_AC3
Продолжительность : 1 ч. 21 м.
Вид битрейта : Постоянный
Битрейт : 384 Кбит/сек
Каналы : 6 каналов
Channel layout : L R C LFE Ls Rs
Частота : 48,0 КГц
Частота кадров : 31,250 кадров/сек (1536 SPF)
Метод сжатия : С потерями
Размер потока : 225 Мбайт (3%)
Заголовок : iTunes
Язык : Russian
Default : Да
Forced : Да
Аудио #2
Идентификатор : 3
Формат : DTS
Формат/Информация : Digital Theater Systems
Идентификатор кодека : A_DTS
Продолжительность : 1 ч. 21 м.
Вид битрейта : Постоянный
Битрейт : 1 509 Кбит/сек
Каналы : 6 каналов
Channel layout : C L R Ls Rs LFE
Частота : 48,0 КГц
Частота кадров : 93,750 кадра/сек (512 SPF)
Битовая глубина : 24 бит
Метод сжатия : С потерями
Размер потока : 884 Мбайт (13%)
Язык : German
Default : Нет
Forced : Нет
Текст #1
Идентификатор : 4
Формат : UTF-8
Идентификатор кодека : S_TEXT/UTF8
Идентификатор кодека/Информация : UTF-8 Plain Text
Продолжительность : 1 ч. 14 м.
Битрейт : 0 бит/сек
Count of elements : 2
Размер потока : 70,0 байт (0%)
Заголовок : Forced
Язык : Russian
Default : Да
Forced : Да
Текст #2
Идентификатор : 5
Формат : UTF-8
Идентификатор кодека : S_TEXT/UTF8
Идентификатор кодека/Информация : UTF-8 Plain Text
Продолжительность : 1 ч. 14 м.
Битрейт : 0 бит/сек
Count of elements : 2
Размер потока : 60,0 байт (0%)
Заголовок : Forced
Язык : English
Default : Нет
Forced : Нет
Текст #3
Идентификатор : 6
Формат : UTF-8
Идентификатор кодека : S_TEXT/UTF8
Идентификатор кодека/Информация : UTF-8 Plain Text
Продолжительность : 1 ч. 14 м.
Битрейт : 57 бит/сек
Count of elements : 1008
Размер потока : 31,7 Кбайт (0%)
Заголовок : Full
Язык : German
Default : Нет
Forced : Нет
Меню
00:00:00.000 : de:01
00:05:18.483 : de:02
00:13:04.908 : de:03
00:23:18.270 : de:04
00:27:15.133 : de:05
00:36:00.532 : de:06
00:40:54.534 : de:07
00:48:23.567 : de:08
00:54:02.030 : de:09
01:05:36.222 : de:10
01:11:49.012 : de:11
01:16:55.359 : de:12
01:21:55.911 : de:13

Скриншоты

       
Other forum [Profile] [PM]
Display posts from previous:    
Reply to topic

The time now is: Today 11:13

All times are GMT + 3 Hours



You cannot post new topics in this forum
You cannot reply to topics in this forum
You cannot edit your posts in this forum
You cannot delete your posts in this forum
You cannot vote in polls in this forum
You cannot attach files in this forum
You cannot download files in this forum