Today is a free download without charge Download

Пушистые мошенники / Latte & The Magic Waterstone (Мими Мэйнард, Реджина Велкер, Нина Вельс) [2019, Мультфильм, комедия, приключения, семейный, BDRip 720p] [GER Transfer] Dub (iTunes) + Original (GER)+ Sub (Rus/Eng)

Reply to topic
 
Author
Message

Kon912 ®

Gender:

Longevity: 6 months 23 days

Posts: 510

Location: Питер

Торрент-статистика

Post 20-Jul-2020 23:30

[Quote]

Пушистые мошенники / Latte & The Magic Waterstone- Год выхода: 2019
Страна: Германия
Студия: Dreamin' Dolphin Film, Eagle Eye Filmproduktion, Grid Animation, Simonsays Pictures
Жанр: Мультфильм, комедия, приключения, семейный
Продолжительность: 01:21:55
Перевод: Профессиональный (полное дублирование) | iTunes-Режиссер:
Мими Мэйнард, Реджина Велкер, Нина Вельс-В ролях:
Луиза Вицорек, Тим Шварцмайер, Хеннинг Баум, Михаэль Дефферт, Эрик Сале, Тимур Бартельс, Регина Лемниц, Геральд Шаале-Описание:
Бельчонок Тьюм и дерзкая и бесстрашная ежиха Латте хотят похитить особенный бриллиант у короля медведей Бантура.
Придумывая разные уловки, они идут к своей цели, но главарь банды волков — Лупо и Рысь, пытаются им помешать и забрать камень себе.- -Качество: BDRip 720p
Формат: MKV
Видео: MPEG-4 AVC, 1280х694 (1.85:1), 3424 Kbps, 23.976 fps
Аудио #01: 48 kHz, AC3, 5.1, 384 Kbps | iTunes | RUS
Аудио #02: 48 kHz, AC3, 5.1, 640 Kbps | Оригинал | GER
Субтитры: Русские(форс.), английские-

MI

x264 [info]: frame I:1237 Avg QP:16.71 size:149645
x264 [info]: frame P:27980 Avg QP:18.51 size: 38033
x264 [info]: frame B:88646 Avg QP:21.18 size: 9643
x264 [info]: consecutive B-frames: 3.6% 3.2% 9.4% 25.6% 15.1% 38.1% 3.5% 0.4% 0.4% 0.6%
General
Unique ID : 89234506953896201634799408964157467885 (0x4321F0DEEBEF448B611662A5AC266CED)
Complete name : F:ФИЛЬМЫРУТОРПушистые мошенники. BDRip 720p.mkv
Format : Matroska
Format version : Version 4
File size : 2.55 GiB
Duration : 1 h 21 min
Overall bit rate : 4 450 kb/s
Movie name : Пушистые мошенники / Latte & The Magic Waterstone (2019) - #LORDKILL#
Encoded date : UTC 2020-07-20 14:00:55
Writing application : mkvmerge v32.0.0 ('Astral Progressions') 64-bit
Writing library : libebml v1.3.7 + libmatroska v1.5.0
Cover : Yes
Attachments : cover.jpg / cover_land.jpg / small_cover.jpg / small_cover_land.jpg / cover.jpg
Video
ID : 1
Format : AVC
Format/Info : Advanced Video Codec
Format profile : [email protected]
Format settings : CABAC / 9 Ref Frames
Format settings, CABAC : Yes
Format settings, Reference : 9 frames
Codec ID : V_MPEG4/ISO/AVC
Duration : 1 h 21 min
Bit rate : 3 424 kb/s
Width : 1 280 pixels
Height : 694 pixels
Display aspect ratio : 1.85:1
Frame rate mode : Constant
Frame rate : 23.976 (24000/1001) FPS
Color space : YUV
Chroma subsampling : 4:2:0
Bit depth : 8 bits
Scan type : Progressive
Bits/(Pixel*Frame) : 0.161
Stream size : 1.96 GiB (77%)
Writing library : x264 core 159 r2991 1771b55
Encoding settings : cabac=1 / ref=9 / deblock=1:-2:-2 / analyse=0x3:0x133 / me=umh / subme=10 / psy=1 / psy_rd=1.00:0.20 / mixed_ref=1 / me_range=32 / chroma_me=1 / trellis=2 / 8x8dct=1 / cqm=0 / deadzone=21,11 / fast_pskip=0 / chroma_qp_offset=-3 / threads=12 / lookahead_threads=2 / sliced_threads=0 / nr=0 / decimate=1 / interlaced=0 / bluray_compat=0 / constrained_intra=0 / bframes=9 / b_pyramid=2 / b_adapt=2 / b_bias=0 / direct=1 / weightb=1 / open_gop=0 / weightp=2 / keyint=240 / keyint_min=23 / scenecut=40 / intra_refresh=0 / rc=crf / mbtree=0 / crf=18.5 / qcomp=0.60 / qpmin=0 / qpmax=69 / qpstep=4 / ip_ratio=1.40 / pb_ratio=1.30 / aq=1:1.00
Default : Yes
Forced : No
Audio #1
ID : 2
Format : AC-3
Format/Info : Audio Coding 3
Commercial name : Dolby Digital
Codec ID : A_AC3
Duration : 1 h 21 min
Bit rate mode : Constant
Bit rate : 384 kb/s
Channel(s) : 6 channels
Channel layout : L R C LFE Ls Rs
Sampling rate : 48.0 kHz
Frame rate : 31.250 FPS (1536 SPF)
Compression mode : Lossy
Stream size : 225 MiB (9%)
Title : Дубляж (iTunes)
Language : Russian
Service kind : Complete Main
Default : Yes
Forced : Yes
Audio #2
ID : 3
Format : AC-3
Format/Info : Audio Coding 3
Commercial name : Dolby Digital
Codec ID : A_AC3
Duration : 1 h 21 min
Bit rate mode : Constant
Bit rate : 640 kb/s
Channel(s) : 6 channels
Channel layout : L R C LFE Ls Rs
Sampling rate : 48.0 kHz
Frame rate : 31.250 FPS (1536 SPF)
Compression mode : Lossy
Stream size : 375 MiB (14%)
Language : English
Service kind : Complete Main
Default : No
Forced : No
Text #1
ID : 4
Format : UTF-8
Codec ID : S_TEXT/UTF8
Codec ID/Info : UTF-8 Plain Text
Duration : 1 h 14 min
Bit rate : 0 b/s
Count of elements : 2
Stream size : 70.0 Bytes (0%)
Title : Forced
Language : Russian
Default : Yes
Forced : Yes
Text #2
ID : 5
Format : UTF-8
Codec ID : S_TEXT/UTF8
Codec ID/Info : UTF-8 Plain Text
Duration : 1 h 14 min
Bit rate : 0 b/s
Count of elements : 2
Stream size : 60.0 Bytes (0%)
Title : Forced
Language : English
Default : No
Forced : No
Text #3
ID : 6
Format : PGS
Muxing mode : zlib
Codec ID : S_HDMV/PGS
Codec ID/Info : Picture based subtitle format used on BDs/HD-DVDs
Duration : 1 h 14 min
Bit rate : 71 b/s
Count of elements : 4
Stream size : 39.2 KiB (0%)
Language : English
Default : No
Forced : No
Menu
00:00:00.000 : de:01
00:05:18.483 : de:02
00:13:04.908 : de:03
00:23:18.270 : de:04
00:27:15.133 : de:05
00:36:00.532 : de:06
00:40:54.534 : de:07
00:48:23.567 : de:08
00:54:02.030 : de:09
01:05:36.222 : de:10
01:11:49.012 : de:11
01:16:55.359 : de:12
01:21:55.911 : de:13

Скриншоты

       
Other forum [Profile] [PM]
Display posts from previous:    
Reply to topic

The time now is: Today 02:18

All times are GMT + 3 Hours



You cannot post new topics in this forum
You cannot reply to topics in this forum
You cannot edit your posts in this forum
You cannot delete your posts in this forum
You cannot vote in polls in this forum
You cannot attach files in this forum
You cannot download files in this forum