Today is a free download without charge Download

Идеальная няня / Chanson douce (Люси Борлето / Lucie Borleteau) [2019, Франция, драма, криминал, BDRip 720p] Dub (iTunes) + Original + Sub (Rus/Eng)

Reply to topic
 
Author
Message

Kon912 ®

Gender:

Longevity: 1 month 23 days

Posts: 322

Location: Питер

Торрент-статистика

Post 22-May-2020 17:24

[Quote]

Идеальная няня / Chanson douce- Страна: Франция
Студия: Why Not Productions, Pan Européenne, StudioCanal
Жанр: драма, криминал
Год выпуска: 2019
Продолжительность: 01:35:25-Перевод: Профессиональный (дублированный) | iTunes-Режиссер:
Люси Борлето / Lucie Borleteau-В ролях:
Карин Вьяр, Лейла Бехти, Антуан Райнарц, Ассия Да Сильва, Ноэль Ренод, Рехаб Мехаль Бенсаин, Калипсо Перетятко, Бенжамин Патисье, Макс Патисье, Лор Джаппикони-Описание: У нее есть ключи от их квартиры. Они сами впустили ее в свою жизнь и отдали в ее руки своих детей. Молодая пара не могла даже мечтать, что сможет найти идеальную няню - строгую, опрятную француженку с огромным опытом. Она выглядит заботливой и доброй, но в ее душе скрывается всепоглощающая тьма...-Качество: BDRip 720p
Формат: MKV
Видео: MPEG-4 AVC, 1280x692, 5000 Kbit/s, 24.000 fps
Аудио #01: 48 kHz, AC3, 5.1, 384 Kbps | iTunes | RUS |
Аудио #02: 48 kHz, AC3, 5.1, 640 Kbps | Оригинал | FRE |
Субтитры: Русские (Forced, full), английские-

Скриншоты

MI

General
Unique ID : 291690341494005712602228530912606281356 (0xDB71842D5CED7894CFC467C95D3FDE8C)
Complete name : E:Video111Chanson.Douce.2019.BDRip.720p.seleZen.mkv
Format : Matroska
Format version : Version 4
File size : 4.17 GiB
Duration : 1 h 39 min
Overall bit rate : 6 008 kb/s
Movie name : Chanson douce / Perfect Nanny 2019 from селезень
Encoded date : UTC 2020-05-22 12:34:33
Writing application : mkvmerge v40.0.0 ('Old Town Road + Pony') 64-bit
Writing library : libebml v1.3.9 + libmatroska v1.5.2
Video
ID : 1
Format : AVC
Format/Info : Advanced Video Codec
Format profile : [email protected]
Format settings : CABAC / 9 Ref Frames
Format settings, CABAC : Yes
Format settings, Reference : 9 frames
Codec ID : V_MPEG4/ISO/AVC
Duration : 1 h 39 min
Bit rate : 5 000 kb/s
Width : 1 280 pixels
Height : 692 pixels
Display aspect ratio : 1.85:1
Frame rate mode : Constant
Frame rate : 24.000 FPS
Color space : YUV
Chroma subsampling : 4:2:0
Bit depth : 8 bits
Scan type : Progressive
Bits/(Pixel*Frame) : 0.235
Stream size : 3.46 GiB (83%)
Title : Encoded by seleZen
Writing library : x264 core 142 r2431+42 c69a006 tMod [[email protected] X86_64]
Encoding settings : cabac=1 / ref=9 / deblock=1:-2:-2 / analyse=0x3:0x133 / me=umh / subme=10 / psy=1 / fade_compensate=0.00 / psy_rd=1.00:0.00 / mixed_ref=1 / me_range=32 / chroma_me=1 / trellis=2 / 8x8dct=1 / cqm=0 / deadzone=21,11 / fast_pskip=0 / chroma_qp_offset=-2 / threads=24 / lookahead_threads=5 / sliced_threads=0 / nr=0 / decimate=0 / interlaced=0 / bluray_compat=0 / constrained_intra=0 / fgo=0 / bframes=10 / b_pyramid=2 / b_adapt=2 / b_bias=0 / direct=3 / weightb=1 / open_gop=0 / weightp=2 / keyint=240 / keyint_min=24 / scenecut=40 / intra_refresh=0 / rc_lookahead=50 / rc=2pass / mbtree=0 / bitrate=5000 / ratetol=1.0 / qcomp=0.60 / qpmin=0:0:0 / qpmax=51:51:51 / qpstep=4 / cplxblur=20.0 / qblur=0.5 / vbv_maxrate=50000 / vbv_bufsize=62500 / nal_hrd=none / filler=0 / ip_ratio=1.40 / pb_ratio=1.30 / aq=3:0.80 / aq-sensitivity=10.00 / aq-factor=1.00:1.00:1.00 / aq2=0 / aq3=0
Language : French
Default : Yes
Forced : No
Audio #1
ID : 2
Format : AC-3
Format/Info : Audio Coding 3
Commercial name : Dolby Digital
Codec ID : A_AC3
Duration : 1 h 39 min
Bit rate mode : Constant
Bit rate : 384 kb/s
Channel(s) : 6 channels
Channel layout : L R C LFE Ls Rs
Sampling rate : 48.0 kHz
Frame rate : 31.250 FPS (1536 SPF)
Compression mode : Lossy
Stream size : 273 MiB (6%)
Title : iTunes
Language : Russian
Service kind : Complete Main
Default : Yes
Forced : Yes
Audio #2
ID : 3
Format : AC-3
Format/Info : Audio Coding 3
Commercial name : Dolby Digital
Codec ID : A_AC3
Duration : 1 h 39 min
Bit rate mode : Constant
Bit rate : 640 kb/s
Channel(s) : 6 channels
Channel layout : L R C LFE Ls Rs
Sampling rate : 48.0 kHz
Frame rate : 31.250 FPS (1536 SPF)
Compression mode : Lossy
Stream size : 455 MiB (11%)
Title : Original
Language : French
Service kind : Complete Main
Default : No
Forced : No
Text #1
ID : 4
Format : UTF-8
Codec ID : S_TEXT/UTF8
Codec ID/Info : UTF-8 Plain Text
Duration : 38 min 32 s
Bit rate : 1 b/s
Count of elements : 7
Stream size : 479 Bytes (0%)
Title : Forced
Language : Russian
Default : Yes
Forced : Yes
Text #2
ID : 5
Format : UTF-8
Codec ID : S_TEXT/UTF8
Codec ID/Info : UTF-8 Plain Text
Duration : 1 h 35 min
Bit rate : 98 b/s
Count of elements : 1129
Stream size : 68.6 KiB (0%)
Title : Full
Language : Russian
Default : No
Forced : No
Text #3
ID : 6
Format : UTF-8
Codec ID : S_TEXT/UTF8
Codec ID/Info : UTF-8 Plain Text
Duration : 1 h 34 min
Bit rate : 38 b/s
Count of elements : 1048
Stream size : 26.8 KiB (0%)
Title : Full
Language : English
Default : No
Forced : No
Menu
00:00:00.000 : fr:
00:09:54.458 : fr:
00:18:40.292 : fr:
00:28:29.000 : fr:
00:36:02.458 : fr:
00:45:40.042 : fr:
00:54:41.458 : fr:
01:03:56.333 : fr:
01:10:50.292 : fr:
01:20:32.000 : fr:
01:29:40.458 : fr:
01:35:35.375 : fr:
Релиз от:


Last edited by Kon912 on 2020-05-24 13:00; edited 1 time in total
Other forum [Profile] [PM]

}{@R0N

Longevity: 4 years 8 months

Posts: 7645

Торрент-статистика

Post 24-May-2020 07:22 (after 1 day 13 hours)

[Quote]

Kon912, В дальнейшем пользуйтесь прямой ссылкой и тегом imgs [imgs]***[/imgs]
Other forum [Profile] [PM]
Display posts from previous:    
Reply to topic

The time now is: Today 13:42

All times are GMT + 3 Hours



You cannot post new topics in this forum
You cannot reply to topics in this forum
You cannot edit your posts in this forum
You cannot delete your posts in this forum
You cannot vote in polls in this forum
You cannot attach files in this forum
You cannot download files in this forum