Today is a free download without charge Download

(Power / Heavy Metal) Mystic Prophecy - Metal Division (Limited Edition, Metallic Boxset 2 CD) - 2019/2020 [FLAC, image +.cue, lossless]

Reply to topic
 
Author
Message

sergej644 ®

Gender:

Longevity: 7 years 9 months

Posts: 648

Location: Klaipeda

Торрент-статистика

Post 22-May-2020 01:33

[Quote]

-Mystic Prophecy - Metal Division (Limited Edition, Metallic Boxset 2 CD) - 2019/2020--
Год издания: 2019/ 2020
Страна: Germany
Жанр: Power / Heavy Metal
Продолжительность: 01:54:39-Лейбл издания: Rock Of Angels Records
Страна-выпуска диска: EU
Номер по каталогу: ROAR2001DIGI-Формат: FLAC
Битрейт аудио: Lossless
Тип рипа: image +.cue
Наличие сканов в содержимом раздачи: да
-

Трэклист

CD 1 - 2020 | Mystic Prophecy - Metal Division | 00:43:24


01. Metal Division (3:29)
02. Eye To Eye (4:16)
03. Hail To The King (3:44)
04. Here Comes The Winter (5:13)
05. Curse Of The Slayer (3:54)
06. Dracula (3:22)
07. Together We Fall (3:40)
08. Die With The Hammer (3:58)
09. Reincarnation (3:55)
10. Mirror Of A Broken Heart (3:43)
11. Victory Is Mine (4:10)

CD 2 - 2019 | VA - Rock Of Angels Records - Official Compilation Vol. II. | 01:11:15


01. Mystic Prophecy - Metal Division (3:29)
02. Aerodyne - Kick It Down (4:15)
03. Steel Prophet - The God Machine (3:22)
04. Monument - Attila (4:53)
05. Enemy Inside - Oblivion (4:34)
06. Full House Brew Crew - Cannot Be Judged (3:37)
07. Ashes of Ares - Let All Despair (5:14)
08. Last Union - President Evil (Feat. James LaBrie) (4:11)
09. Guardians Of Time - As I Burn (Feat. Tim 'Ripper' Owens) (4:22)
10. Freternia - Dark Vision (5:26)
11. Badd Kharma - Devil In You (4:24)
12. KingCrown - Over The Moon (4:06)
13. Kilmara - The End Of The World (5:04)
14. Steel Engraved - Where Shadows Remain (4:42)
15. Athanasia - White Horse (5:12)
16. SL Theory - You Never Happened (4:25)
-

Лог создания рипа

CD 1 | Mystic Prophecy - Metal Division

Код:
Exact Audio Copy V1.3 from 2. September 2016
EAC extraction logfile from 21. January 2020, 10:28
Mystic Prophecy / Metal Division (ROAR2001DIGI)
Used drive  : PIONEER DVD-RW  DVR-221   Adapter: 1  ID: 0
Read mode               : Secure
Utilize accurate stream : Yes
Defeat audio cache      : Yes
Make use of C2 pointers : No
Read offset correction                      : 6
Overread into Lead-In and Lead-Out          : No
Fill up missing offset samples with silence : Yes
Delete leading and trailing silent blocks   : No
Null samples used in CRC calculations       : Yes
Used interface                              : Installed external ASPI interface
Used output format              : User Defined Encoder
Selected bitrate                : 1024 kBit/s
Quality                         : High
Add ID3 tag                     : No
Command line compressor         : C:\Program Files\Exact Audio Copy\FLAC\FLAC.EXE
Additional command line options : -V -8 -T "Date=%year%" -T "Genre=%genre%" -T "COMMENT=" -8 -V %source%
TOC of the extracted CD
     Track |   Start  |  Length  | Start sector | End sector
    ---------------------------------------------------------
        1  |  0:00.00 |  3:29.12 |         0    |    15686
        2  |  3:29.12 |  4:15.51 |     15687    |    34862
        3  |  7:44.63 |  3:44.15 |     34863    |    51677
        4  | 11:29.03 |  5:13.14 |     51678    |    75166
        5  | 16:42.17 |  3:53.68 |     75167    |    92709
        6  | 20:36.10 |  3:21.72 |     92710    |   107856
        7  | 23:58.07 |  3:39.62 |    107857    |   124343
        8  | 27:37.69 |  3:58.15 |    124344    |   142208
        9  | 31:36.09 |  3:54.50 |    142209    |   159808
       10  | 35:30.59 |  3:43.33 |    159809    |   176566
       11  | 39:14.17 |  4:09.49 |    176567    |   195290
Range status and errors
Selected range
     Filename D:\Program Files\CD Images\Mystic Prophecy - Metal Division 2020 (Limited Edition,Metallic Boxset 2CD) (lossless)\Metal Division\Mystic Prophecy - Metal Division (ROAR2001DIGI).wav
     Peak level 96.5 %
     Extraction speed 4.2 X
     Range quality 99.9 %
     Test CRC 25C58FBB
     Copy CRC 25C58FBB
     Copy OK
No errors occurred
AccurateRip summary
Track  1  not present in database
Track  2  not present in database
Track  3  not present in database
Track  4  not present in database
Track  5  not present in database
Track  6  not present in database
Track  7  not present in database
Track  8  not present in database
Track  9  not present in database
Track 10  not present in database
Track 11  not present in database
None of the tracks are present in the AccurateRip database
End of status report

CD 2 | VA - Rock Of Angels Records - Official Compilation Vol. II.

Код:
Exact Audio Copy V1.3 from 2. September 2016
EAC extraction logfile from 23. January 2020, 9:07
Various / ROCK OF ANGELS RECORDS - OFFICIAL COMPILATION Vol .II
Used drive  : PIONEER DVD-RW  DVR-221   Adapter: 1  ID: 0
Read mode               : Secure
Utilize accurate stream : Yes
Defeat audio cache      : Yes
Make use of C2 pointers : No
Read offset correction                      : 6
Overread into Lead-In and Lead-Out          : No
Fill up missing offset samples with silence : Yes
Delete leading and trailing silent blocks   : No
Null samples used in CRC calculations       : Yes
Used interface                              : Installed external ASPI interface
Used output format              : User Defined Encoder
Selected bitrate                : 1024 kBit/s
Quality                         : High
Add ID3 tag                     : No
Command line compressor         : C:\Program Files\Exact Audio Copy\FLAC\FLAC.EXE
Additional command line options : -V -8 -T "Date=%year%" -T "Genre=%genre%" -T "COMMENT=" -8 -V %source%
TOC of the extracted CD
     Track |   Start  |  Length  | Start sector | End sector
    ---------------------------------------------------------
        1  |  0:00.00 |  3:29.13 |         0    |    15687
        2  |  3:29.13 |  4:14.64 |     15688    |    34801
        3  |  7:44.02 |  3:21.54 |     34802    |    49930
        4  | 11:05.56 |  4:53.36 |     49931    |    71941
        5  | 15:59.17 |  4:33.61 |     71942    |    92477
        6  | 20:33.03 |  3:37.03 |     92478    |   108755
        7  | 24:10.06 |  5:14.36 |    108756    |   132341
        8  | 29:24.42 |  4:10.38 |    132342    |   151129
        9  | 33:35.05 |  4:21.50 |    151130    |   170754
       10  | 37:56.55 |  5:26.28 |    170755    |   195232
       11  | 43:23.08 |  4:23.57 |    195233    |   215014
       12  | 47:46.65 |  4:05.48 |    215015    |   233437
       13  | 51:52.38 |  5:04.06 |    233438    |   256243
       14  | 56:56.44 |  4:42.36 |    256244    |   277429
       15  | 61:39.05 |  5:11.50 |    277430    |   300804
       16  | 66:50.55 |  4:24.52 |    300805    |   320656
Range status and errors
Selected range
     Filename D:\Program Files\CD Images\Mystic Prophecy - Metal Division 2020 (Limited Edition,Metallic Boxset 2CD) (Lossless)\Rock Of Angels Records - Official Compilation Vol.II 2019\Various - ROCK OF ANGELS RECORDS - OFFICIAL COMPILATION Vol
     Peak level 99.9 %
     Extraction speed 5.3 X
     Range quality 100.0 %
     Test CRC 6454FB66
     Copy CRC 6454FB66
     Copy OK
No errors occurred
AccurateRip summary
Track  1  accurately ripped (confidence 1)  [83C43296]  (AR v2)
Track  2  accurately ripped (confidence 1)  [89047861]  (AR v2)
Track  3  accurately ripped (confidence 1)  [08A5424B]  (AR v2)
Track  4  accurately ripped (confidence 1)  [43A6D9B1]  (AR v2)
Track  5  accurately ripped (confidence 1)  [FD5B538B]  (AR v2)
Track  6  accurately ripped (confidence 1)  [59344817]  (AR v2)
Track  7  accurately ripped (confidence 1)  [849A359C]  (AR v2)
Track  8  accurately ripped (confidence 1)  [AEACEE72]  (AR v2)
Track  9  accurately ripped (confidence 1)  [C2B0AE92]  (AR v2)
Track 10  accurately ripped (confidence 1)  [9DE19A02]  (AR v2)
Track 11  accurately ripped (confidence 1)  [896E7ABF]  (AR v2)
Track 12  accurately ripped (confidence 1)  [A7B9B932]  (AR v2)
Track 13  accurately ripped (confidence 1)  [DACAC0A9]  (AR v2)
Track 14  accurately ripped (confidence 1)  [39C8D3D0]  (AR v2)
Track 15  accurately ripped (confidence 1)  [01333E5D]  (AR v2)
Track 16  accurately ripped (confidence 1)  [7720AD57]  (AR v2)
All tracks accurately ripped
End of status report

Индексная карта (non-compilant .cue)

CD 1 | Mystic Prophecy - Metal Division

Код:
REM GENRE "Heavy/Power/Thrash Metal"
REM DATE 2019
REM DISCID 890A2B0B
REM COMMENT "ExactAudioCopy v1.3"
PERFORMER "Mystic Prophecy"
TITLE "Metal Division (ROAR2001DIGI)"
REM COMPOSER ""
FILE "Mystic Prophecy - Metal Division (ROAR2001DIGI).flac" WAVE
  TRACK 01 AUDIO
    TITLE "Metal Division"
    PERFORMER "Mystic Prophecy"
    REM COMPOSER ""
    INDEX 01 00:00:00
  TRACK 02 AUDIO
    TITLE "Eye To Eye"
    PERFORMER "Mystic Prophecy"
    REM COMPOSER ""
    INDEX 00 03:28:12
    INDEX 01 03:29:12
  TRACK 03 AUDIO
    TITLE "Hail To The King"
    PERFORMER "Mystic Prophecy"
    REM COMPOSER ""
    INDEX 00 07:43:63
    INDEX 01 07:44:63
  TRACK 04 AUDIO
    TITLE "Here Comes The Winter"
    PERFORMER "Mystic Prophecy"
    REM COMPOSER ""
    INDEX 00 11:28:36
    INDEX 01 11:29:03
  TRACK 05 AUDIO
    TITLE "Curse Of The Slayer"
    PERFORMER "Mystic Prophecy"
    REM COMPOSER ""
    INDEX 00 16:41:17
    INDEX 01 16:42:17
  TRACK 06 AUDIO
    TITLE "Dracula"
    PERFORMER "Mystic Prophecy"
    REM COMPOSER ""
    INDEX 00 20:35:10
    INDEX 01 20:36:10
  TRACK 07 AUDIO
    TITLE "Together We Fall"
    PERFORMER "Mystic Prophecy"
    REM COMPOSER ""
    INDEX 00 23:57:07
    INDEX 01 23:58:07
  TRACK 08 AUDIO
    TITLE "Die With The Hammer"
    PERFORMER "Mystic Prophecy"
    REM COMPOSER ""
    INDEX 00 27:36:69
    INDEX 01 27:37:69
  TRACK 09 AUDIO
    TITLE "Reincarnation"
    PERFORMER "Mystic Prophecy"
    REM COMPOSER ""
    INDEX 00 31:35:09
    INDEX 01 31:36:09
  TRACK 10 AUDIO
    TITLE "Mirror Of A Broken Heart"
    PERFORMER "Mystic Prophecy"
    REM COMPOSER ""
    INDEX 00 35:29:59
    INDEX 01 35:30:59
  TRACK 11 AUDIO
    TITLE "Victory Is Mine"
    PERFORMER "Mystic Prophecy"
    REM COMPOSER ""
    INDEX 00 39:13:17
    INDEX 01 39:14:17

CD 2 | VA - Rock Of Angels Records - Official Compilation Vol. II.

Код:
REM GENRE "Heavy/Power/Thrash Metal"
REM DATE 2019
REM DISCID D110B310
REM COMMENT "ExactAudioCopy v1.3"
PERFORMER "Various"
TITLE "Rock Of Angels Records - Official Compilation Vol. II"
REM COMPOSER ""
FILE "Various - Rock Of Angels Records - Official Compilation Vol. II.flac" WAVE
  TRACK 01 AUDIO
    TITLE "Metal Division"
    PERFORMER "Mystic Prophecy"
    REM COMPOSER ""
    INDEX 01 00:00:00
  TRACK 02 AUDIO
    TITLE "Kick It Down"
    PERFORMER "Aerodyne"
    REM COMPOSER ""
    INDEX 01 03:29:13
  TRACK 03 AUDIO
    TITLE "The God Machine "
    PERFORMER "Steel Prophet"
    REM COMPOSER ""
    INDEX 01 07:44:02
  TRACK 04 AUDIO
    TITLE "Attila"
    PERFORMER "Monument"
    REM COMPOSER ""
    INDEX 01 11:05:56
  TRACK 05 AUDIO
    TITLE "Oblivion"
    PERFORMER "Enemy Inside"
    REM COMPOSER ""
    INDEX 01 15:59:17
  TRACK 06 AUDIO
    TITLE "Cannot Be Judged"
    PERFORMER "Full House Brew Crew"
    REM COMPOSER ""
    INDEX 01 20:33:03
  TRACK 07 AUDIO
    TITLE "Let All Despair"
    PERFORMER "Ashes of Ares"
    REM COMPOSER ""
    INDEX 01 24:10:06
  TRACK 08 AUDIO
    TITLE "President Evil (Feat. James LaBrie)"
    PERFORMER "Last Union"
    REM COMPOSER ""
    INDEX 01 29:24:42
  TRACK 09 AUDIO
    TITLE "As I Burn (Feat. Tim 'Ripper' Owens)"
    PERFORMER "Guardians Of Time"
    REM COMPOSER ""
    INDEX 01 33:35:05
  TRACK 10 AUDIO
    TITLE "Dark Vision"
    PERFORMER "Freternia"
    REM COMPOSER ""
    INDEX 01 37:56:55
  TRACK 11 AUDIO
    TITLE "Devil In You"
    PERFORMER "Badd Kharma"
    REM COMPOSER ""
    INDEX 01 43:23:08
  TRACK 12 AUDIO
    TITLE "Over The Moon"
    PERFORMER "KingCrown"
    REM COMPOSER ""
    INDEX 01 47:46:65
  TRACK 13 AUDIO
    TITLE "The End Of The World"
    PERFORMER "Kilmara"
    REM COMPOSER ""
    INDEX 01 51:52:38
  TRACK 14 AUDIO
    TITLE "Where Shadows Remain"
    PERFORMER "Steel Engraved"
    REM COMPOSER ""
    INDEX 01 56:56:44
  TRACK 15 AUDIO
    TITLE "White Horse"
    PERFORMER "Athanasia"
    REM COMPOSER ""
    INDEX 01 61:39:05
  TRACK 16 AUDIO
    TITLE "You Never Happened"
    PERFORMER "SL Theory"
    REM COMPOSER ""
    INDEX 01 66:50:55
-

для ознакомления:

--

_________________
У нас все платно: родиться, учиться, жениться, лечиться, умереть.
Бесплатно разрешено только работать.
Other forum [Profile] [PM]
Display posts from previous:    
Reply to topic

The time now is: Today 01:29

All times are GMT + 3 Hours



You cannot post new topics in this forum
You cannot reply to topics in this forum
You cannot edit your posts in this forum
You cannot delete your posts in this forum
You cannot vote in polls in this forum
You cannot attach files in this forum
You cannot download files in this forum