Today is a free download without charge Download

Легендарный квест: Пир ворона / Мистический квест: Пир ворона / Mythic Quest: Raven's Banquet (2020) WEB-DLRip [H.264/1080p] (сезон 1, серии 1-9 из 9) LostFilm

Reply to topic
 
Author
Message

Soldat_5 ®

Longevity: 4 months 22 days

Posts: 117

Торрент-статистика

Post 18-Mar-2020 14:33

[Quote]

Легендарный квест: Пир ворона/Мистический квест: Пир ворона / Mythic Quest: Raven's Banquet (2020) WEB-DLRip [H.264/1080p]- Производство: США / Arts Entertainment, Lions Gate Television, Ubisoft Motion Pictures
Жанр: комедия
Режиссер: Тодд Бирман, Дэвид Гордон Грин, Пит Чатмон
Актеры: Роб МакЭлхенни, Эшли Берч, Джесси Эннис, Имани Хаким, Дэвид Хорнсби, Шарлотта Никдао, Дэнни Пуди, Ф. Мюррэй Абрахам, Элиша Хениг, Апарна Нанчерла и др.
Описание:
Гениальный эгоистичный разработчик игр Иэн Гримм намерен создать величайшую видеоигру в истории с собой в главной роли. Поддерживать безумные планы начальника вынуждена команда программистов, давно привыкших к выходкам босса.

Дата мировой премьеры: 7 февраля 2020
Продолжительность: 00:25:00 серия
Качество видео: WEB-DLRip [img]http://nnmclub.ch/forum/image.php?link=https://assets.nnm-club.ws/forum/images/channel/sample_light_nnm.png[/img]
Перевод: Многоголосый профессиональный (LostFilm)
Реклама: Заставка и логотип LostFilm
Видео: AVC/H.264, 1920х1080, ~6800 Kbps
Аудио 1: AC3, 6 ch, 384 Kbps - русский
Аудио 2: AC3, 6 ch, 384 Kbps - английский

MediaInfo:

Общее
Уникальный идентификатор : 181822712854311511431869067829032230663 (0x88C9C7DDA1C2A7ADA7433ECEBCEB9F07)
Полное имя : E:\Mythic.Quest.Ravens.Banquet.S01.1080p.rus.LostFilm.TV\Mythic.Quest.Ravens.Banquet.S01E01.1080p.rus.LostFilm.TV.mkv
Формат : Matroska
Версия формата : Version 4
Размер файла : 1,52 Гбайт
Продолжительность : 28 м. 49 с.
Общий поток : 7564 Кбит/сек
Дата кодирования : UTC 2020-02-17 19:40:02
Программа кодирования : mkvmerge v9.5.0 ('Quiet Fire') 64bit
Библиотека кодирования : libebml v1.3.4 + libmatroska v1.4.5
Видео
Идентификатор : 1
Формат : AVC
Формат/Информация : Advanced Video Codec
Профиль формата : [url=mailto:[email protected]][email protected][/url]
Настройки формата : CABAC / 4 Ref Frames
Параметр CABAC формата : Да
Параметр RefFrames формата : 4 кадра
Идентификатор кодека : V_MPEG4/ISO/AVC
Продолжительность : 28 м. 49 с.
Битрейт : 6800 Кбит/сек
Ширина : 1920 пикселей
Высота : 1080 пикселей
Соотношение сторон : 16:9
Режим частоты кадров : Постоянный
Частота кадров : 23,976 (24000/1001) кадра/сек
Частота кадров в оригинале : 23,976 (23976/1000) кадра/сек
Цветовое пространство : YUV
Субдискретизация насыщенности : 4:2:0
Битовая глубина : 8 бит
Тип развёртки : Прогрессивная
Бит/(Пиксели*Кадры) : 0.137
Размер потока : 1,37 Гбайт (90%)
Библиотека кодирования : x264 core 112 r1834 a51816a
Настройки программы : cabac=1 / ref=4 / deblock=1:-3:-2 / analyse=0x3:0x113 / me=hex / subme=7 / psy=1 / psy_rd=1.00:0.00 / mixed_ref=1 / me_range=16 / chroma_me=1 / trellis=1 / 8x8dct=1 / cqm=0 / deadzone=21,11 / fast_pskip=1 / chroma_qp_offset=-2 / threads=12 / sliced_threads=0 / nr=0 / decimate=1 / interlaced=0 / constrained_intra=0 / bframes=5 / b_pyramid=2 / b_adapt=1 / b_bias=0 / direct=1 / weightb=1 / open_gop=0 / weightp=2 / keyint=250 / keyint_min=25 / scenecut=40 / intra_refresh=0 / rc_lookahead=40 / rc=2pass / mbtree=1 / bitrate=6800 / ratetol=1.0 / qcomp=0.60 / qpmin=0 / qpmax=51 / qpstep=4 / cplxblur=20.0 / qblur=0.5 / vbv_maxrate=10000 / vbv_bufsize=256000 / ip_ratio=1.40 / aq=1:1.00 / nal_hrd=none
Default : Да
Forced : Нет
Аудио #1
Идентификатор : 2
Формат : AC-3
Формат/Информация : Audio Coding 3
Коммерческое название : Dolby Digital
Идентификатор кодека : A_AC3
Продолжительность : 28 м. 48 с.
Вид битрейта : Постоянный
Битрейт : 384 Кбит/сек
Каналы : 2 канала
ChannelLayout : L R
Частота : 48,0 КГц
Частота кадров : 31,250 кадров/сек (1536 SPF)
Метод сжатия : С потерями
Размер потока : 79,1 Мбайт (5%)
ServiceKind/String : Complete Main
Default : Да
Forced : Нет
Аудио #2
Идентификатор : 3
Формат : AC-3
Формат/Информация : Audio Coding 3
Коммерческое название : Dolby Digital
Идентификатор кодека : A_AC3
Продолжительность : 28 м. 49 с.
Вид битрейта : Постоянный
Битрейт : 384 Кбит/сек
Каналы : 2 канала
ChannelLayout : L R
Частота : 48,0 КГц
Частота кадров : 31,250 кадров/сек (1536 SPF)
Метод сжатия : С потерями
Размер потока : 79,2 Мбайт (5%)
ServiceKind/String : Complete Main
Default : Нет
Forced : Нет
Скриншоты:
       
Other forum [Profile] [PM]

Dracula

Longevity: 6 years 5 months

Posts: 11246

Торрент-статистика

Post 20-Mar-2020 20:11 (after 2 days 5 hours)

Топик был перенесен из форума Зарубежные сериалы в форум Архив


}{@R0N
 
Similar theme
Forum Topic Author Torrent Replies Last Post
./templates/default/images/folder_dl.gif Зарубежное кино Геракл: Начало легенды / The Legend of Hercules (Ренни Харлин / Renny Harlin) [2014, США, Болгария, боевик, фэнтези, BDRip 720p] Dub (BD RUS) + Ukr Dub + Original Eng + Sub (Rus, Eng) Omen
1 | 0

0 | 2067

15

2015-04-07 00:00
Omen Latest
Display posts from previous:    
Reply to topic

The time now is: Today 20:17

All times are GMT + 3 Hours



You cannot post new topics in this forum
You cannot reply to topics in this forum
You cannot edit your posts in this forum
You cannot delete your posts in this forum
You cannot vote in polls in this forum
You cannot attach files in this forum
You cannot download files in this forum