Today is a free download without charge Download

Formula-E: Mexico City E-Prix, Квалификация, Гонка [A21 Network] (15.02.2020) WEB-DL [H.264/720p-LQ]

Reply to topic
 
Author
Message

RazBoyNik ®

Gender:

Longevity: 6 years 5 months

Posts: 468

Торрент-статистика

Post 16-Feb-2020 13:25

[Quote]

Formula-E: Mexico City E-Prix, Квалификация, Гонка [A21 Network] (15.02.2020) WEB-DL [H.264/720p-LQ]- Телекомпания: A21 Network
Жанр: Спорт
Описание:
4 этап электрической формулы Formula E в Мехико, Мексика.
Комментатор: Сергей Сухоруков
ВНИМАНИЕ! Из-за проблем с ТВ-сигналом в записи квалификации присутствует только 1 сегмент и суперпоул.

Релиз от: A21 Network
Продолжительность: 01:13:40 + 02:30:11
Качество видео: WEB-DL
Язык озвучки: Русский (Сергей Сухоруков)
Видео: AVC/H.264, 1280х720, ~3298 Kbps + 3502 Kbps
Аудио: AAC, 2 ch, 149 Kbps + 179 Kbps

MediaInfo:

Общее
Полное имя : D:\My Downloads\FE\Formula-E Mexico E-Prix, Гонка, 15.02.2020 [545TV, A21 Network].mp4
Формат : MPEG-4
Профиль формата : Base Media
Идентификатор кодека : isom (isom/iso2/avc1/mp41)
Размер файла : 3,87 Гбайт
Продолжительность : 2 ч. 30 м.
Режим общего битрейта : Переменный
Общий поток : 3691 Кбит/сек
Видео
Идентификатор : 2
Формат : AVC
Формат/Информация : Advanced Video Codec
Профиль формата : [url=mailto:[email protected]][email protected][/url]
Настройки формата : CABAC / 4 Ref Frames
Параметр CABAC формата : Да
Параметр RefFrames формата : 4 кадра
Параметр GOP формата : M=4, N=60
Идентификатор кодека : avc1
Идентификатор кодека/Информация : Advanced Video Coding
Продолжительность : 2 ч. 30 м.
Продолжительность оригинала : 2 ч. 30 м.
Битрейт : 3502 Кбит/сек
Ширина : 1280 пикселей
Высота : 720 пикселей
Соотношение сторон : 16:9
Режим частоты кадров : Переменный
Частота кадров : 30,000 кадров/сек
Минимальная частота кадров : 5,988 кадров/сек
Максимальная частота кадров : 121,294 кадров/сек
Цветовое пространство : YUV
Субдискретизация насыщенности : 4:2:0
Битовая глубина : 8 бит
Тип развёртки : Прогрессивная
Бит/(Пиксели*Кадры) : 0.127
Размер потока : 3,67 Гбайт (95%)
Размер потока оригинала : 3,67 Гбайт (95%)
mdhd_Duration : 9009566
Codec configuration box : avcC
Аудио
Идентификатор : 1
Формат : AAC LC
Формат/Информация : Advanced Audio Codec Low Complexity
Идентификатор кодека : mp4a-40-2
Продолжительность : 2 ч. 30 м.
Продолжительность оригинала : 2 ч. 30 м.
Вид битрейта : Переменный
Битрейт : 179 Кбит/сек
Максимальный битрейт : 519 Кбит/сек
Каналы : 2 канала
ChannelLayout : L R
Частота : 44,1 КГц
Частота кадров : 43,066 кадра/сек (1024 SPF)
Метод сжатия : С потерями
Размер потока : 192 Мбайт (5%)
Размер потока оригинала : 192 Мбайт (5%)
mdhd_Duration : 9011316

avdump:

File: D:\My Downloads\FE\Formula-E Mexico E-Prix, Гонка, 15.02.2020 [545TV, A21 Network].mp4
Duration: 02:30:11 (9011.32) - WARNING: Differs from video duration! (1.75 sec)
Track #1: video
lang: Unknown (1)
codc: avc1 -> H264/AVC (22)
reso: 1280x720 -> 16:9
fram: vfr
rate: 3502 kbps (3501.66)
dura: 02:30:10 (9009.57)
size: 0.00 B (0)
Track #2: audio
lang: Unknown (1)
codc: A_AAC/MPEG4/LC -> AAC (9)
chan: 2 -> Stereo
samp: 44100 Hz
rate: 179 kbps (178.51)
dura: 02:30:11 (9011.32)
size: 0.00 B (0)
Sizes: (check sanity)
disk: 3.87 GB (4157332764)
trac: 0.00 B (0) [based on track size]
bitr: 3.86 GB (4144596311) [based on bitrate]
tdif: 3.87 GB (4157332764) 100.00%
bdif: 12.15 MB (12736452) 0.30%
Скриншоты:
       
Other forum [Profile] [PM]
Display posts from previous:    
Reply to topic

The time now is: Today 18:59

All times are GMT + 3 Hours



You cannot post new topics in this forum
You cannot reply to topics in this forum
You cannot edit your posts in this forum
You cannot delete your posts in this forum
You cannot vote in polls in this forum
You cannot attach files in this forum
You cannot download files in this forum