Today is a free download without charge Download

Похождения бравого солдата Швейка (Ринат Газизов) [2009б Мультфильм, комедия, рисованная анимация, для взрослых, WEBRip, 1080p-LQ]

Reply to topic
 
Author
Message

mayor ®

Gender:

Longevity: 7 months 2 days

Posts: 206

Location: РФ

Торрент-статистика

Post 13-Jan-2020 18:40

[Quote]

- Похождения бравого солдата Швейка - Производство: Россия, Украина / Арт Продакшн, Ялта-фильм
Жанр: Мультфильм, комедия, рисованная анимация, для взрослых
Режиссер: Ринат Газизов
Актеры: Юрий Стоянов, Юрий Деркач, Гоша Куценко, Владислав Копп, Павел Сметанкин, Денис Некрасов, Александр Новиков, Данил Щебланов, Михаил Тихонов, Андрей Казанцев
Описание:
Йозефа Швейка, чешского торговца собаками, которого уже дисквалифицировали из армии как форменного идиота, снова призывают на службу в качестве пушечного мяса во время Первой мировой войны. Ему докучали бюрократы, полицейские, доктора и духовенство, его «продавали» от одного офицера другому, но добродушный, болтливый и бесхитростный солдат Швейк все же неохотно приближается к линии фронта и, очевидно, к верной смерти.

Возраст: 16+ (зрителям, достигшим 16 лет)
Продолжительность: 01:10:22
Качество видео: WEBRip
Субтитры: Отсутствуют
Видео: AVC/H.264, 1920x1038 (1.85:1), ~5120 Kbps
Аудио: AC3, 2 ch, 192 Kbps

Доп.Информация:

Общее
Уникальный идентификатор : 291050566326690015225263179135643022490 (0xDAF64CD37B210E837F20039E988FF49A)
Полное имя : F:\Похождение бравого солдата Швейка (2009).mkv
Формат : Matroska
Версия формата : Version 4
Размер файла : 2,61 Гбайт
Продолжительность : 1 ч. 10 м.
Общий поток : 5306 Кбит/сек
Программа кодирования : Lavf58.20.100
Библиотека кодирования : Lavf58.20.100
ErrorDetectionType : Per level 1
Видео
Идентификатор : 1
Формат : AVC
Формат/Информация : Advanced Video Codec
Профиль формата : [email protected]
Настройки формата : CABAC / 4 Ref Frames
Параметр CABAC формата : Да
Параметр RefFrames формата : 4 кадра
Идентификатор кодека : V_MPEG4/ISO/AVC
Продолжительность : 1 ч. 10 м.
Битрейт : 5120 Кбит/сек
Ширина : 1920 пикселей
Высота : 1038 пикселей
Соотношение сторон : 1,85:1
Режим частоты кадров : Постоянный
Частота кадров : 25,000 кадров/сек
Цветовое пространство : YUV
Субдискретизация насыщенности : 4:2:0
Битовая глубина : 8 бит
Тип развёртки : Прогрессивная
Бит/(Пиксели*Кадры) : 0.103
Размер потока : 2,46 Гбайт (94%)
Библиотека кодирования : x264 core 142
Настройки программы : cabac=1 / ref=3 / deblock=1:0:0 / analyse=0x3:0x113 / me=hex / subme=7 / psy=1 / psy_rd=1.00:0.00 / mixed_ref=1 / me_range=16 / chroma_me=1 / trellis=1 / 8x8dct=1 / cqm=0 / deadzone=21,11 / fast_pskip=1 / chroma_qp_offset=-2 / threads=108 / lookahead_threads=8 / sliced_threads=0 / nr=0 / decimate=1 / interlaced=0 / bluray_compat=0 / constrained_intra=0 / bframes=6 / b_pyramid=2 / b_adapt=1 / b_bias=0 / direct=1 / weightb=1 / open_gop=0 / weightp=2 / keyint=50 / keyint_min=26 / scenecut=0 / intra_refresh=0 / rc_lookahead=40 / rc=2pass / mbtree=1 / bitrate=5120 / ratetol=1.0 / qcomp=0.60 / qpmin=0 / qpmax=69 / qpstep=4 / cplxblur=20.0 / qblur=0.5 / vbv_maxrate=7680 / vbv_bufsize=20480 / nal_hrd=none / filler=0 / ip_ratio=1.40 / aq=1:1.00
Default : Да
Forced : Нет
Аудио
Идентификатор : 2
Формат : AC-3
Формат/Информация : Audio Coding 3
Коммерческое название : Dolby Digital
Идентификатор кодека : A_AC3
Продолжительность : 1 ч. 10 м.
Вид битрейта : Постоянный
Битрейт : 192 Кбит/сек
Каналы : 2 канала
ChannelLayout : L R
Частота : 48,0 КГц
Частота кадров : 31,250 кадров/сек (1536 SPF)
Метод сжатия : С потерями
Задержка видео : -80 мс.
Размер потока : 96,6 Мбайт (4%)
ServiceKind/String : Complete Main
Default : Да
Forced : Нет
Скриншоты:
       

_________________
Other forum [Profile] [PM]
Display posts from previous:    
Reply to topic

The time now is: Today 02:37

All times are GMT + 3 Hours



You cannot post new topics in this forum
You cannot reply to topics in this forum
You cannot edit your posts in this forum
You cannot delete your posts in this forum
You cannot vote in polls in this forum
You cannot attach files in this forum
You cannot download files in this forum