Today is a free download without charge Download

Наследие / Heritage (William von Tagen) [2019, Триллер, WEBRip, 1080p-LQ] [DVO]

Reply to topic
 
Author
Message

mayor ®

Gender:

Longevity: 1 month 24 days

Posts: 206

Location: РФ

Торрент-статистика

Post 13-Jan-2020 18:33

[Quote]

-Наследие / Heritage- Производство: США, Германия / Northwest Motion Pictures, von Tagen International
Жанр: Триллер
Режиссер: William von Tagen
Актеры: Беттина Циммерманн, Ральф Херфорт, Луиза Вицорек, Люка Призор, Трэвис Линкольн Кокс, Гиза Флаке, Петер Ломайер, Джулия Эфферц, Джейк Коеппл, Питер Флехтнер
Описание:
В попытке найти пропавшего коллегу бывший агент ЦРУ отправляется в горный район восточной Германии, где оказывается вовлечён в круговорот шпионских игр и, пытаясь найти сокровища, узнаёт мрачные секреты Штази тридцатилетней давности.

Дата мировой премьеры: 15 ноября 2019
Релиз от: LakeFilms
Продолжительность: 01:18:41
Качество видео: WEBRip [http://sendfile.su/1540707]
Перевод: Двуголосый любительский (LakeFilms)
Субтитры: отсутствуют
Реклама: присутствуют видео, аудио, текстовые вставки рекламы
Видео: AVC/H.264, 1920x1030, ~5 100 kbps
Аудио: AC3, 2 ch, 320 kbps

Доп.Информация:

General
Unique ID : 280990343572604747523463798103990946052 (0xD364C58C9FF0E5DA02EBE718A60D4904)
Complete name : E:Heritage.2019.1080p.LakeFilms.mkv
Format : Matroska
Format version : Version 4 / Version 2
File size : 2.95 GiB
Duration : 1 h 18 min
Overall bit rate : 5 369 kb/s
Writing application : XviD4PSP 8.0.96
Writing library : Lavf58.29.100
ErrorDetectionType : Per level 1
ENCODING_INFO : MATROSKA,WEBM > MKV 1080p
Video
ID : 1
Format : AVC
Format/Info : Advanced Video Codec
Format profile : [email protected]
Format settings : CABAC / 4 Ref Frames
Format settings, CABAC : Yes
Format settings, RefFrames : 4 frames
Codec ID : V_MPEG4/ISO/AVC
Duration : 1 h 18 min
Bit rate : 5 100 kb/s
Width : 1 920 pixels
Height : 1 030 pixels
Display aspect ratio : 1.85:1
Frame rate mode : Constant
Frame rate : 23.976 (24000/1001) FPS
Color space : YUV
Chroma subsampling : 4:2:0
Bit depth : 8 bits
Scan type : Progressive
Bits/(Pixel*Frame) : 0.108
Stream size : 2.72 GiB (92%)
Writing library : x264 core 157 r2958 57baac4
Encoding settings : cabac=1 / ref=1 / deblock=1:-2:-2 / analyse=0x3:0x3 / me=dia / subme=2 / psy=1 / psy_rd=1.00:0.00 / mixed_ref=0 / me_range=8 / chroma_me=1 / trellis=0 / 8x8dct=1 / cqm=0 / deadzone=21,11 / fast_pskip=1 / chroma_qp_offset=0 / threads=5 / lookahead_threads=1 / sliced_threads=0 / nr=0 / decimate=1 / interlaced=0 / bluray_compat=0 / constrained_intra=0 / bframes=3 / b_pyramid=2 / b_adapt=1 / b_bias=0 / direct=1 / weightb=1 / open_gop=0 / weightp=1 / keyint=240 / keyint_min=24 / scenecut=40 / intra_refresh=0 / rc=abr / mbtree=0 / bitrate=5100 / ratetol=1.0 / qcomp=0.60 / qpmin=0 / qpmax=69 / qpstep=4 / ip_ratio=1.40 / pb_ratio=1.30 / aq=1:1.00
Default : Yes
Forced : No
ENCODING_INFO : H264 > X264 ABR 5100kbps Super Fast
Audio
ID : 2
Format : AC-3
Format/Info : Audio Coding 3
Codec ID : A_AC3
Duration : 1 h 18 min
Bit rate mode : Constant
Bit rate : 320 kb/s
Channel(s) : 2 channels
Channel positions : Front: L R
Sampling rate : 48.0 kHz
Frame rate : 31.250 FPS (1536 SPF)
Bit depth : 16 bits
Compression mode : Lossy
Stream size : 180 MiB (6%)
Service kind : Complete Main
Default : Yes
Forced : No
ENCODING_INFO : AAC-LC > AC3 CBR 320kbps
Скриншоты:
       

_________________
Other forum [Profile] [PM]
Display posts from previous:    
Reply to topic

The time now is: Today 21:17

All times are GMT + 3 Hours



You cannot post new topics in this forum
You cannot reply to topics in this forum
You cannot edit your posts in this forum
You cannot delete your posts in this forum
You cannot vote in polls in this forum
You cannot attach files in this forum
You cannot download files in this forum