Today is a free download without charge Download

Вампирские войны / V-Wars (Брэд Тернер, Т.Дж. Скотт, Кааре Эндрюс) [2019, ужасы, фантастика, драма, WEB-DLRip, 720p-LQ] (сезон 1, серии 1-10 из 10) LostFilm

Reply to topic
 
Author
Message

mayor ®

Gender:

Longevity: 1 month 24 days

Posts: 206

Location: РФ

Торрент-статистика

Post 11-Jan-2020 08:41

[Quote]

- Вампирские войны / V-Wars (сезон 1, серии 1-10 из 10) - Производство: США / High Park Entertainment, IDW Entertainment, NetFlix
Жанр: ужасы, фантастика, драма
Режиссер: Брэд Тернер, Т.Дж. Скотт, Кааре Эндрюс
Актеры: Иэн Сомерхолдер, Адриан Холмс, Джеки Лаи, Кайл Харрисон Брейткопф, Кимберли-Сью Мюррэй, Питер Аутербридж, Майкл Грейес, Сидни Мейер, Лора Вандервурт, Саманта Коул и др.
Описание:
Сериал рассказывает о докторе Лютере Суонне, мир которого переворачивается с ног на голову, когда таинственная болезнь превращает его лучшего друга, Майкла Фэйна, в кровожадного хищника. Постепенно вирус начинает распространяться, что приводит к новым мутациями и появлению отдельного вида — вампиров.

Дата мировой премьеры: 05.12.2019
Релиз от: LostFilm
Продолжительность: ~00:60:00 серия
Качество видео: WEB-DLRip [http://sendfile.su/1540554]
Перевод: Многоголосый профессиональный (LostFilm)
Реклама: присутствуют заставка и логотип LostFilm.
Видео: AVC/H.264, 1280x720 (16:9), ~4000 Kbps
Аудио: AAC, 2 ch, 48 kbps

Список серий:

01. Down with the Sickness / Сражённый болезнью
02. Blood Brothers / Братья по крови
03. Because I Could Not Stop for Death / Я к смерти ехать не стремилась
04. Bad as Me / Не лучше, чем я
05. Cold Cold Ground / Холодная земля
06. It’s Not Enough to Have Lived / Недостаточно просто жить
07. The Night Is Darkening Round Me / Ночь сгущается вокруг меня
08. Red Rain / Кровавый дождь
09. The Junkie Run of the Predator Gene / Соблазн гена хищника
10. Bloody but Unbow'd / Сражён, но не сломлен

MI

General
Complete name : V.Wars.S01E01.720p.rus.LostFilm.TV.mp4
Format : MPEG-4
Format profile : Base Media
Codec ID : isom (isom)
File size : 1.60 GiB
Duration : 56 min 41 s
Overall bit rate mode : Variable
Overall bit rate : 4 053 kb/s
Collection : Вампирские войны
Season : 1
Album : Вампирские войны, Сезон 1
Album/Performer : Вампирские войны
Part : 1
Part/Position : 1
Track name : Сражённый болезнью
Track name/Position : 1
Performer : Вампирские войны
Genre : Drama
ContentType : TV Show
Recorded date : 2019
Encoded date : UTC 2019-12-07 18:09:15
Tagged date : UTC 2019-12-07 18:09:15
Writing application : Yamb 2.1.0.0 [http://yamb.unite-video.com] / LostCoder
Copyright : LostFilm.TV (c)
Cover : Yes
Comment : Майкл Фейн живет яркой и насыщенной жизнью. Семьи у него нет, поэтому он немного завидует лучшему другу, Лютеру Суонну.
Part_ID : 101
rati : (Binary)
Video
ID : 1
Format : AVC
Format/Info : Advanced Video Codec
Format profile : [url=mailto:[email protected]][email protected][/url]
Format settings : CABAC / 4 Ref Frames
Format settings, CABAC : Yes
Format settings, Reference frames : 4 frames
Codec ID : avc1
Codec ID/Info : Advanced Video Coding
Duration : 56 min 41 s
Bit rate : 4 000 kb/s
Maximum bit rate : 13.6 Mb/s
Width : 1 280 pixels
Height : 720 pixels
Display aspect ratio : 16:9
Frame rate mode : Constant
Frame rate : 23.976 (24000/1001) FPS
Original frame rate : 23.976 (23976/1000) FPS
Color space : YUV
Chroma subsampling : 4:2:0
Bit depth : 8 bits
Scan type : Progressive
Bits/(Pixel*Frame) : 0.181
Stream size : 1.58 GiB (99%)
Title : Imported with GPAC 0.4.6-DEV (internal rev. 5)
Writing library : x264 core 112 r1834 a51816a
Encoding settings : cabac=1 / ref=4 / deblock=1:-3:-2 / analyse=0x3:0x113 / me=hex / subme=7 / psy=1 / psy_rd=1.00:0.00 / mixed_ref=1 / me_range=16 / chroma_me=1 / trellis=1 / 8x8dct=1 / cqm=0 / deadzone=21,11 / fast_pskip=1 / chroma_qp_offset=-2 / threads=12 / sliced_threads=0 / nr=0 / decimate=1 / interlaced=0 / constrained_intra=0 / bframes=5 / b_pyramid=2 / b_adapt=1 / b_bias=0 / direct=1 / weightb=1 / open_gop=0 / weightp=2 / keyint=250 / keyint_min=25 / scenecut=40 / intra_refresh=0 / rc_lookahead=40 / rc=2pass / mbtree=1 / bitrate=4000 / ratetol=1.0 / qcomp=0.60 / qpmin=0 / qpmax=51 / qpstep=4 / cplxblur=20.0 / qblur=0.5 / vbv_maxrate=10000 / vbv_bufsize=256000 / ip_ratio=1.40 / aq=1:1.00 / nal_hrd=none
Encoded date : UTC 2019-12-06 16:53:23
Tagged date : UTC 2019-12-07 18:09:48
Codec configuration box : avcC
Audio
ID : 2
Format : AAC LC SBR
Format/Info : Advanced Audio Codec Low Complexity with Spectral Band Replication
Commercial name : HE-AAC
Format settings : NBC
Codec ID : mp4a-40-5
Duration : 56 min 39 s
Bit rate mode : Variable
Bit rate : 48.0 kb/s
Maximum bit rate : 54.2 kb/s
Channel(s) : 2 channels
Channel layout : L R
Sampling rate : 48.0 kHz
Frame rate : 23.438 FPS (2048 SPF)
Compression mode : Lossy
Stream size : 19.5 MiB (1%)
Encoded date : UTC 2019-12-07 18:09:47
Tagged date : UTC 2019-12-07 18:09:48
Скриншоты:
       

_________________
Other forum [Profile] [PM]
Display posts from previous:    
Reply to topic

The time now is: Today 21:17

All times are GMT + 3 Hours



You cannot post new topics in this forum
You cannot reply to topics in this forum
You cannot edit your posts in this forum
You cannot delete your posts in this forum
You cannot vote in polls in this forum
You cannot attach files in this forum
You cannot download files in this forum