Today is a free download without charge Download

1917 / 1917 (Сэм Мендес) [2019, Военный, история, драма, TS, 720p-LQ] [MVO]

Reply to topic
 
Author
Message

mayor ®

Gender:

Longevity: 1 year 9 months

Posts: 206

Location: РФ

Торрент-статистика

Post 07-Jan-2020 10:17

[Quote]

-1917 / 1917 - Производство: Великобритания, США / Amblin Partners, DreamWorks, Neal Street Productions
Жанр: Военный, история, драма
Режиссер: Сэм Мендес
Актеры: Дин-Чарльз Чепмен, Джордж Маккэй, Дэниэл Мейс, Колин Фёрт, Пип Картер, Энди Аполло, Пол Тинто, Josef Davies, Билли Постлтуэйт, Гэбриел Акувудике
Описание:
1917 год, разгар Первой мировой войны. Двум юным солдатам поручают смертельно опасную миссию. Они должны пересечь вражескую территорию и доставить секретное сообщение, которое предотвратит неминуемую гибель сотен солдат… Смогут ли они выиграть гонку со временем?

Возраст: 16+ (зрителям, достигшим 16 лет)
Рейтинг MPAA: R (лицам до 17 лет обязательно присутствие взрослого)
Дата мировой премьеры: 4 декабря 2019
Дата премьеры в России: 30 января 2020

Продолжительность: 01:49:28
Качество видео: TS [http://sendfile.su/1539538]
Перевод: Многоголосый закадровый, любительский (КОЛОБОК)
Субтитры: Отсутствуют
Реклама: Присутствует баннер.
Видео: AVC/H.264, 1280x536, ~3631 Kbps
Аудио: AC-3, 2 ch, 384 Kbps

Доп.Информация:

Общее
Полное имя : D:\1917\1917.2019..TS.720p-LQ.mkv
Формат : Matroska
Версия формата : Version 2
Размер файла : 3,13 Гбайт
Продолжительность : 1 ч. 49 м.
Режим общего битрейта : Постоянный
Общий поток : 4096 Кбит/сек
Программа кодирования : libmatroska 1.4.1
Библиотека кодирования : SolveigMM Matroska Muxer Version 1.0.1502.31
Видео
Идентификатор : 1
Формат : AVC
Формат/Информация : Advanced Video Codec
Профиль формата : [url=mailto:[email protected]][email protected][/url]
Настройки формата : CABAC / 4 Ref Frames
Параметр CABAC формата : Да
Параметр RefFrames формата : 4 кадра
Идентификатор кодека : V_MPEG4/ISO/AVC
Продолжительность : 1 ч. 49 м.
Вид битрейта : Постоянный
Битрейт : 3631 Кбит/сек
Номинальный битрейт : 4000 Кбит/сек / 4000 Кбит/сек
Ширина : 1280 пикселей
Высота : 536 пикселей
Соотношение сторон : 2,40:1
Режим частоты кадров : Постоянный
Частота кадров : 23,976 (24000/1001) кадра/сек
Стандарт вещания : Component
Цветовое пространство : YUV
Субдискретизация насыщенности : 4:2:0
Битовая глубина : 8 бит
Тип развёртки : Прогрессивная
Бит/(Пиксели*Кадры) : 0.221
Размер потока : 2,78 Гбайт (89%)
Default : Нет
Forced : Нет
Цветовой диапазон : Limited
Основные цвета : BT.709
Характеристики трансфера : BT.709
Коэффициенты матрицы : BT.709
Аудио
Идентификатор : 2
Формат : AC-3
Формат/Информация : Audio Coding 3
Коммерческое название : Dolby Digital
Идентификатор кодека : A_AC3
Продолжительность : 1 ч. 49 м.
Вид битрейта : Постоянный
Битрейт : 384 Кбит/сек
Каналы : 2 канала
ChannelLayout : M M
Частота : 48,0 КГц
Частота кадров : 31,250 кадров/сек (1536 SPF)
Метод сжатия : С потерями
Размер потока : 301 Мбайт (9%)
Язык : Russian
ServiceKind/String : Complete Main
Default : Нет
Forced : Нет
Скриншоты:
       

_________________
Other forum [Profile] [PM]
Display posts from previous:    
Reply to topic

The time now is: Today 12:08

All times are GMT + 3 Hours



You cannot post new topics in this forum
You cannot reply to topics in this forum
You cannot edit your posts in this forum
You cannot delete your posts in this forum
You cannot vote in polls in this forum
You cannot attach files in this forum
You cannot download files in this forum