Today is a free download without charge Download

Ип Ман 4 / Yip Man 4 (2019) TS [MVO] [AD]

Reply to topic
 
Author
Message

Clavik ®

Gender:

Longevity: 7 years 11 months

Posts: 2454

Location: Украина

Торрент-статистика

Post 28-Dec-2019 16:57

[Quote]

Ип Ман 4 / Yip Man 4 (2019) TS- Производство: Гонконг, Китай / Bullet Films, Mandarin Motion Pictures, Shanghai Bona Cultural Media
Жанр: Боевик, биография
Режиссер: Уилсон Ип
Актеры: Донни Йен, Дэнни Чан, У Юэ, Скотт Эдкинс, Ванесс У, Крис Коллинз, Никола Стюарт-Хилл, Grace Englert, Кент Чэн, Дэвид Джонсон Вуд
Описание:
Америка, 1960-е годы. Ип Ман прибывает в Сиэтл, где один из его учеников решил открыть школу вин-чун.

Дата мировой премьеры: 20 декабря 2019
Продолжительность: 01:40:22
Качество видео: TS
Перевод: Многоголосый закадровый, любительский (КОЛОБОК)
Субтитры: Отсутствуют
Реклама: Присутствует баннер.
Видео: AVC/H.264, 1280x506, ~3663 Kbps
Аудио: AC-3, 2 ch, 384 Kbps

MediaInfo:

Общее
Полное имя : D:\NNM\Ип Ман 4\Ip.man.4.2019.TS.720p-LQ.mkv
Формат : Matroska
Версия формата : Version 2
Размер файла : 2,89 Гбайт
Продолжительность : 1 ч. 40 м.
Режим общего битрейта : Переменный
Общий поток : 4129 Кбит/сек
Программа кодирования : libmatroska 1.4.1
Библиотека кодирования : SolveigMM Matroska Muxer Version 1.0.1502.31
Видео
Идентификатор : 1
Формат : AVC
Формат/Информация : Advanced Video Codec
Профиль формата : [url=mailto:[email protected]][email protected][/url]
Настройки формата : CABAC / 4 Ref Frames
Параметр CABAC формата : Да
Параметр RefFrames формата : 4 кадра
Идентификатор кодека : V_MPEG4/ISO/AVC
Продолжительность : 1 ч. 40 м.
Вид битрейта : Переменный
Битрейт : 3663 Кбит/сек
Номинальный битрейт : 4000 Кбит/сек
Максимальный битрейт : 4000 Кбит/сек
Ширина : 1280 пикселей
Высота : 506 пикселей
Соотношение сторон : 2,530
Режим частоты кадров : Постоянный
Частота кадров : 23,976 (24000/1001) кадра/сек
Стандарт вещания : Component
Цветовое пространство : YUV
Субдискретизация насыщенности : 4:2:0
Битовая глубина : 8 бит
Тип развёртки : Прогрессивная
Бит/(Пиксели*Кадры) : 0.236
Размер потока : 2,57 Гбайт (89%)
Default : Нет
Forced : Нет
Цветовой диапазон : Limited
Основные цвета : BT.709
Характеристики трансфера : BT.709
Коэффициенты матрицы : BT.709
Аудио
Идентификатор : 2
Формат : AC-3
Формат/Информация : Audio Coding 3
Коммерческое название : Dolby Digital
Идентификатор кодека : A_AC3
Продолжительность : 1 ч. 40 м.
Вид битрейта : Постоянный
Битрейт : 384 Кбит/сек
Каналы : 2 канала
ChannelLayout : L R
Частота : 48,0 КГц
Частота кадров : 31,250 кадров/сек (1536 SPF)
Метод сжатия : С потерями
Размер потока : 276 Мбайт (9%)
Язык : Russian
ServiceKind/String : Complete Main
Default : Нет
Forced : Нет
Скриншоты:        

_________________


Other forum [Profile] [PM]
Display posts from previous:    
Reply to topic

The time now is: Today 14:37

All times are GMT + 3 Hours



You cannot post new topics in this forum
You cannot reply to topics in this forum
You cannot edit your posts in this forum
You cannot delete your posts in this forum
You cannot vote in polls in this forum
You cannot attach files in this forum
You cannot download files in this forum